<?xml version="1.0" standalone="no"?>
<!DOCTYPE svg PUBLIC "-//W3C//DTD SVG 1.1//EN" "http://www.w3.org/Graphics/SVG/1.1/DTD/svg11.dtd" >
<svg xmlns="http://www.w3.org/2000/svg">
<metadata>
This is a custom SVG webfont generated by Font Squirrel.
Copyright   : Llicia gratu  Free License La Tipomatika
Designer    : La Tipomatika Digital Type Foundry
Foundry     : La Tipomatika
</metadata>
<defs>
<font id="webfontsotsPn5Q" horiz-adv-x="1220" >
<font-face units-per-em="2048" ascent="1638" descent="-410" />
<missing-glyph horiz-adv-x="526" />
<glyph unicode=" "  horiz-adv-x="526" />
<glyph unicode="&#x09;" horiz-adv-x="526" />
<glyph unicode="&#xa0;" horiz-adv-x="526" />
<glyph unicode="!" horiz-adv-x="360" d="M115 30.5q0 20.5 14 34t35 13.5q43 0 47 -47q0 -20 -13.5 -34.5t-34 -14.5t-34.5 14t-14 34.5zM127 203v1212h74v-1212h-74z" />
<glyph unicode="&#x22;" horiz-adv-x="444" d="M74 1415h98l14 -129l-77 -164l-13 13zM227 1415h99l14 -129l-78 -164l-12 13z" />
<glyph unicode="#" horiz-adv-x="1462" d="M66 453l73 90h217l107 293h-397l71 90h359l145 393h92l-143 -393h491l146 393h92l-143 -393h237l-72 -90h-198l-109 -293h381l-74 -90h-340l-161 -453h-95l164 453h-493l-162 -453h-94l164 453h-258zM449 543h493l107 293h-492z" />
<glyph unicode="$" horiz-adv-x="954" d="M72 1042q0 145 101 249t259 126v92h86v-88q215 0 356 -157l-69 -56q-113 133 -287 133v-606q160 -31 264.5 -137t104.5 -244q0 -143 -105.5 -246.5t-263.5 -121.5v-121h-86v117q-8 2 -22 2q-219 23 -336 190l69 55q45 -68 123 -114.5t166 -46.5v594q-158 29 -259 135 t-101 245zM162 1051q0 -106 75.5 -190.5t194.5 -110.5v585q-113 -23 -191.5 -102.5t-78.5 -181.5zM518 72q115 16 196 93t81 183q0 109 -78 195t-199 108v-579z" />
<glyph unicode="&#x26;" horiz-adv-x="1222" d="M84 385q0 246 322 395l53 25l-37 43q-94 102 -125 165.5t-31 125.5q0 113 89 198.5t231 85.5q129 0 214 -78.5t85 -191.5q0 -178 -256 -319l-45 -25l338 -422l28 57q47 92 66 174l102 -22q-55 -174 -125 -274l-4 -41l2 -7l42 -61q11 -16 34 -39.5t59 -54.5v-105 q-59 37 -170 168l-30 37l-33 -37q-164 -186 -385 -182q-180 0 -302 113.5t-122 271.5zM193 395q0 -121 90 -221t223 -100q92 -2 187 54t153 142l16 25l-368 463l-33 -21q-268 -158 -268 -342zM365 1157q4 -94 79 -180l103 -119l31 16q119 70 162.5 130.5t43.5 144.5 q0 90 -58 151.5t-151 61.5q-86 0 -148 -59.5t-62 -145.5z" />
<glyph unicode="'" horiz-adv-x="247" d="M45 1139l66 137l-15 129l99 10l14 -129l-152 -160z" />
<glyph unicode="(" horiz-adv-x="532" d="M94 592q0 270 63.5 495.5t166.5 335.5l38 -100q-78 -96 -123.5 -294t-45.5 -437q0 -264 54 -473t142 -293l-51 -86q-109 106 -176.5 337.5t-67.5 514.5z" />
<glyph unicode=")" horiz-adv-x="503" d="M119 -174q88 84 142 293t54 473q0 240 -46 437.5t-124 293.5l39 100q102 -111 166 -336t64 -495q0 -283 -67.5 -514.5t-176.5 -337.5z" />
<glyph unicode="*" horiz-adv-x="964" d="M133 1106v84h248l-176 176l59 61l176 -176v250h86v-250l176 176l62 -59l-176 -176h250v-86h-250l176 -178l-59 -60l-179 176v-249h-86v247l-176 -174l-61 60l176 178h-246z" />
<glyph unicode="+" horiz-adv-x="925" d="M113 559v86h309v309h86v-309h311v-86h-311v-311h-86v311h-309z" />
<glyph unicode="," horiz-adv-x="354" d="M78 -129l82 129l-2 131h98l2 -131l-170 -141z" />
<glyph unicode="-" horiz-adv-x="862" d="M84 559v86h707v-86h-707z" />
<glyph unicode="." horiz-adv-x="296" d="M86 131h131l2 -131h-131z" />
<glyph unicode="/" horiz-adv-x="774" d="M92 0l516 1415h92l-514 -1415h-94z" />
<glyph unicode="0" horiz-adv-x="1200" d="M86 704.5q0 296.5 153.5 507.5t366.5 211q215 0 365.5 -209.5t150.5 -508.5t-150.5 -511t-365.5 -212q-213 0 -366.5 213t-153.5 509.5zM172 705q0 -264 128 -450.5t306 -186.5q180 0 306 185t126 452q0 264 -126 448t-306 184q-178 0 -306 -185t-128 -447z" />
<glyph unicode="1" horiz-adv-x="538" d="M74 1202l258 213h86l2 -1415h-86l-2 1305l-197 -162z" />
<glyph unicode="2" horiz-adv-x="972" d="M115 84l596 668q90 100 90 233q0 150 -104.5 251t-256.5 101q-143 0 -250 -100l-61 61q139 125 311 125q184 0 315.5 -129t131.5 -309q0 -170 -121 -295l-537 -606h658l2 -84h-772z" />
<glyph unicode="3" horiz-adv-x="882" d="M53 123l60 59q106 -121 272 -121q143 0 244.5 92.5t101.5 221.5q0 117 -92 205t-225 100h-191v86h191q135 8 228 90t93 195q0 121 -101.5 204.5t-242.5 83.5q-176 0 -278 -112l-60 61q125 135 338 135q180 0 308 -108.5t128 -263.5q0 -106 -67.5 -195.5t-173.5 -134.5 q106 -49 168.5 -142.5t62.5 -203.5q0 -166 -126 -282t-306 -116q-203 1 -332 146z" />
<glyph unicode="4" horiz-adv-x="968" d="M76 520v86h4l467 809l74 -41l-445 -768h420v316h86v-316h203v-86h-203l2 -520h-86l-2 520h-520z" />
<glyph unicode="5" horiz-adv-x="1032" d="M100 721l50 694h755v-86h-669l-50 -459q127 143 320 144q190 0 322.5 -147.5t132.5 -356.5q0 -211 -131.5 -360.5t-321.5 -149.5q-109 0 -205 54.5t-158 146.5l60 59q49 -80 128 -127t173 -47q154 0 261 124t107 300t-107.5 298t-260.5 122q-104 0 -190.5 -57.5 t-129.5 -151.5h-86z" />
<glyph unicode="6" horiz-adv-x="1036" d="M111 725q0 201 26 334q31 154 148.5 258t273.5 108q229 0 367 -178l-86 -53q-49 68 -123 106.5t-156 38.5q-127 0 -226 -88t-122 -219q-27 -145 -27 -332q0 -10 1 -30.5t1 -30.5q53 86 143.5 138t196.5 57q180 0 309.5 -117t131.5 -293v-18q0 -178 -125 -300t-303 -122 q-170 0 -292 117.5t-130 289.5v6q-8 86 -8 328zM203 399q0 -137 101.5 -235t240.5 -98t239.5 99t100.5 236v19q-4 139 -103.5 234.5t-241 95.5t-239.5 -105t-98 -246z" />
<glyph unicode="7" horiz-adv-x="907" d="M92 0l617 1329h-574v86h717l-657 -1415h-103z" />
<glyph unicode="8" horiz-adv-x="940" d="M66 391q0 121 63.5 221.5t165.5 151.5q-84 45 -134 127t-50 178q0 145 106.5 249.5t255.5 104.5q154 0 261.5 -103t107.5 -251q0 -98 -50.5 -179t-136.5 -126q106 -51 169 -150.5t63 -222.5q0 -170 -121 -289.5t-293 -119.5q-168 0 -287.5 120.5t-119.5 288.5zM152 391 q0 -131 95 -227t226 -96q135 0 231.5 96t96.5 227q0 135 -95.5 231.5t-232.5 96.5q-131 0 -226 -96.5t-95 -231.5zM197 1069q0 -109 81.5 -187.5t194.5 -78.5q117 0 199 79t82 187q0 113 -82 190.5t-199 77.5q-115 0 -195.5 -77.5t-80.5 -190.5z" />
<glyph unicode="9" horiz-adv-x="1001" d="M78 985v14q0 176 125 301t301 125t299 -119.5t131 -291.5v-6q6 -82 6 -344q0 -182 -25 -314q-31 -160 -156.5 -262t-291.5 -102q-98 0 -190.5 46t-153.5 122l84 67q104 -147 274 -147q133 0 231.5 84t127.5 215q23 158 22 323v70q-57 -86 -152.5 -136t-209.5 -50 q-170 0 -294 117.5t-128 287.5zM160 989q8 -135 106.5 -230t233.5 -95q145 0 246.5 99t101.5 243q0 135 -103.5 233t-238.5 98q-143 0 -244.5 -103.5t-101.5 -244.5z" />
<glyph unicode=":" horiz-adv-x="372" d="M123 131h131l2 -131h-131zM123 893v131h131v-131h-131z" />
<glyph unicode=";" horiz-adv-x="346" d="M55 -129l82 129l-2 131h98l3 -131l-170 -141zM123 893v131h131v-131h-131z" />
<glyph unicode="&#x3c;" horiz-adv-x="675" d="M57 508l498 504l63 -60l-440 -444l440 -434l-61 -64z" />
<glyph unicode="=" horiz-adv-x="901" d="M141 410v90h686v-90h-686zM141 807v90h686v-90h-686z" />
<glyph unicode="&#x3e;" horiz-adv-x="688" d="M78 74l440 434l-440 444l63 60l498 -504l-500 -498z" />
<glyph unicode="?" horiz-adv-x="839" d="M76 1251q49 78 131 125t176 47q156 0 265.5 -113.5t109.5 -273.5q0 -154 -108.5 -266.5t-260.5 -112.5h-108l194 -657h-90l-188 657v84h192q119 2 202 88t83 207q0 125 -85 214t-206 89q-160 0 -248 -147zM422 -196.5q0 24.5 16.5 39t38.5 14.5q53 0 53 -54 q0 -25 -14 -42t-39 -17q-23 0 -39 17.5t-16 42z" />
<glyph unicode="@" horiz-adv-x="1544" d="M98 668q0 326 200 540.5t519 214.5q256 0 438.5 -156.5t182.5 -418.5q0 -195 -119 -367t-291 -192q-119 6 -151 61q-72 -68 -172 -67q-109 0 -185 77.5t-76 188.5q0 113 78 188.5t191 75.5h164v25v-29q0 233 -97 233q-84 0 -141 -20l-10 -2l-23 90l10 2q72 23 164 23h2 q168 -6 181 -308l2 27q-4 -162 -4 -309q0 -14 -3.5 -45t-2.5 -47.5t7.5 -36t27 -28.5t54.5 -9q47 0 121 60.5t115 144.5q23 45 38 128t15 138q0 195 -146.5 332t-375.5 137q-262 0 -436 -182.5t-174 -456.5q0 -268 167 -419.5t463 -151.5q176 0 309.5 61t198.5 160l4 4h130 l-11 -19q-72 -131 -237.5 -222t-390.5 -91q-334 0 -535 173.5t-201 492.5zM518 549q0 -76 54.5 -130t132.5 -54q76 0 130 54t54 130v182h-176q-82 0 -138.5 -52t-56.5 -130z" />
<glyph unicode="A" d="M66 0l520 1415h71l525 -1415h-90l-222 588h-497l-217 -588h-90zM403 674h437l-219 590z" />
<glyph unicode="B" horiz-adv-x="1048" d="M109 1415h86h366q154 -2 264.5 -105.5t110.5 -242.5q0 -102 -55.5 -186t-147.5 -131q106 -45 169 -139.5t63 -209.5q0 -162 -117 -278.5t-287 -118.5l-35 -4h-415zM195 86h329h37q133 6 225.5 98t92.5 217q0 121 -92.5 211t-225.5 99h-366v-625zM195 797h366 q121 4 205 80.5t84 189.5q0 104 -84 182t-205 84h-37h-329v-536z" />
<glyph unicode="C" horiz-adv-x="1208" d="M59 707q0 289 188.5 502.5t454.5 213.5q258 0 439 -196l-58 -64v6q-162 168 -381 168q-227 0 -391 -184t-164 -446.5t160 -449.5t395 -187q211 0 377 166l58 -58q-186 -197 -435 -196q-256 0 -449.5 215t-193.5 510z" />
<glyph unicode="D" horiz-adv-x="1177" d="M76 1415h86h436q205 -2 349.5 -208t144.5 -496.5t-142.5 -496.5t-347.5 -210l2 -4h-526zM162 86h440v4q168 4 286 185.5t118 435.5q0 252 -119 434t-289 184h-436v-1243z" />
<glyph unicode="E" horiz-adv-x="993" d="M90 1415h817v-82h-731v-536h625v-86h-625v-625h731l2 -86h-817z" />
<glyph unicode="F" horiz-adv-x="997" d="M98 1415h817v-80h-731v-538h625v-86h-625l2 -711h-86z" />
<glyph unicode="G" horiz-adv-x="1236" d="M51 700q0 299 190.5 511t456.5 212q254 0 441 -196l-58 -60q-162 168 -383 168q-233 0 -397 -185t-164 -450q0 -262 165 -449.5t396 -187.5q203 0 355 146v405h-391v82h477v-516v-6q-186 -193 -441 -192q-266 0 -456.5 210.5t-190.5 507.5z" />
<glyph unicode="H" horiz-adv-x="1142" d="M100 1415h86v-618h781v618h86l2 -1415h-86l-2 711h-781l2 -711h-86z" />
<glyph unicode="I" horiz-adv-x="282" d="M100 1415h86l2 -1415h-86z" />
<glyph unicode="J" horiz-adv-x="624" d="M70 68l55 59q53 -59 111 -59q74 0 125 77.5t51 194.5v1075h88v-1071q0 -147 -79 -254.5t-185 -107.5q-90 0 -166 86z" />
<glyph unicode="K" horiz-adv-x="1193" d="M90 1415h86v-770l660 770h116l-528 -614l686 -801h-111l-630 735l-193 -223l2 -512h-86z" />
<glyph unicode="L" horiz-adv-x="927" d="M90 1415h86v-1329h690l2 -86h-776z" />
<glyph unicode="M" horiz-adv-x="1275" d="M70 1415h86l469 -790l458 790h88l3 -1415h-89l-2 1249l-434 -747h-53l-440 747l2 -1249h-86z" />
<glyph unicode="N" horiz-adv-x="1099" d="M96 1415h84l733 -1243v1243h86l2 -1415h-86l-735 1249l2 -1249h-84z" />
<glyph unicode="O" horiz-adv-x="1413" d="M59 707q0 297 188.5 506.5t454.5 209.5q274 0 459 -207.5t185 -508.5q0 -319 -197 -527q-182 -199 -447 -198q-262 0 -452.5 210t-190.5 515zM147 707q0 -266 161 -451.5t394 -185.5q238 0 400 185t162 452q0 279 -179 460q-152 168 -383 168t-393 -183t-162 -445z" />
<glyph unicode="P" horiz-adv-x="983" d="M109 1415h407q166 0 282.5 -102.5t116.5 -245.5q0 -150 -116.5 -254t-282.5 -104h-321l2 -709h-86zM195 795h321q129 0 220 78.5t91 193.5q0 109 -92 187.5t-219 78.5h-6h-315v-538z" />
<glyph unicode="Q" horiz-adv-x="1361" d="M76 754q0 283 176 476t418 193q244 0 421 -194.5t177 -474.5q0 -285 -191 -482q-135 -150 -329 -178q8 -66 34.5 -108.5t59.5 -42.5q41 0 63 47l58 -49q-57 -78 -121 -78q-61 0 -110.5 64.5t-61.5 158.5q-242 6 -418 200t-176 468zM154 754q0 -240 149.5 -413t362.5 -179 q-4 37 -31 62q-25 24 -60 24h-6v74h6q66 0 113 -42q49 -44 60 -114q184 37 311 204t127 384q0 264 -166 436q-150 160 -350 160q-211 0 -363.5 -174t-152.5 -422z" />
<glyph unicode="R" horiz-adv-x="970" d="M88 1415h406q168 0 284.5 -102.5t116.5 -247.5q0 -147 -116.5 -250.5t-284.5 -103.5h-203l627 -711h-111l-629 711h-4l2 -711h-86zM174 797h320q131 0 223 77.5t92 190.5q0 111 -93 190.5t-222 79.5h-5h-315v-538z" />
<glyph unicode="S" horiz-adv-x="993" d="M90 1044q0 160 127 268.5t309 108.5q227 0 367 -157l-70 -56q-111 133 -297 133q-137 0 -241.5 -85t-104.5 -203.5t94.5 -209.5t233.5 -104q172 -23 284.5 -132t112.5 -253q0 -156 -124 -264t-302 -108q-121 0 -224 53t-163 139l70 55q109 -162 321 -161 q133 0 231.5 80.5t98.5 197.5q0 119 -88 206t-221 103h-6q-176 16 -292 127.5t-116 261.5z" />
<glyph unicode="T" horiz-adv-x="1177" d="M86 1333v82h549h461v-82h-461l2 -1333h-86l-2 1333h-463z" />
<glyph unicode="U" horiz-adv-x="1224" d="M88 354v1061h92v-1061q8 -119 134 -201.5t302 -82.5q170 0 294 83t132 201v1061h86v-1061q-6 -154 -156.5 -263t-355.5 -109q-211 0 -364.5 109t-163.5 263z" />
<glyph unicode="V" horiz-adv-x="1308" d="M88 1415h90l477 -1288l478 1288h90l-521 -1415h-90z" />
<glyph unicode="W" horiz-adv-x="1873" d="M94 1415h90l480 -1288l221 604l-252 684h90l207 -563l270 -725l475 1288h92l-518 -1415h-94l-225 604l-219 -604h-93z" />
<glyph unicode="X" horiz-adv-x="1107" d="M80 0l420 725l-404 690h97l368 -618l365 618h100l-414 -704l416 -711h-100l-379 639l-373 -639h-96z" />
<glyph unicode="Y" horiz-adv-x="1394" d="M72 1415h116l504 -692l512 692h115l-580 -774l2 -641h-88l-2 641z" />
<glyph unicode="Z" horiz-adv-x="1122" d="M72 0l827 1329h-770v86h850h72l-826 -1329h754l2 -86h-850h-59z" />
<glyph unicode="[" horiz-adv-x="430" d="M86 684v86h41q39 0 64.5 26.5t25.5 65.5v461v4v6q6 37 42 59.5t81 22.5v-88q-35 0 -35 -4v-485q-10 -27 -34.5 -47.5t-53.5 -20.5v-86q68 0 88 -66v-522q0 -10 35 -10l2 -86q-41 0 -83 27.5t-42 68.5v496q0 39 -25.5 65.5t-64.5 26.5h-41z" />
<glyph unicode="\" horiz-adv-x="759" d="M90 1415h92l520 -1415h-94z" />
<glyph unicode="]" horiz-adv-x="374" d="M57 86q25 0 41 10v522q12 66 82 66l4 86q-33 0 -56.5 19.5t-29.5 48.5v485q-6 4 -41 4v88q51 0 84 -22.5t39 -59.5l4 -6v-4v-461q0 -39 23.5 -65.5t60.5 -26.5h43v-86h-43q-37 0 -60.5 -25.5t-23.5 -66.5v-496q0 -39 -40 -67.5t-85 -28.5z" />
<glyph unicode="^" horiz-adv-x="1128" d="M63 918l504 497l498 -500l-64 -61l-434 440l-444 -440z" />
<glyph unicode="_" horiz-adv-x="1050" d="M84 86h860l2 -86h-860z" />
<glyph unicode="`" horiz-adv-x="417" d="M63 1311h136l135 -178h-47z" />
<glyph unicode="a" horiz-adv-x="831" d="M82 289q0 135 100.5 223t243.5 88h233v45q0 127 -60 215t-157 90h-2q-133 0 -237 -30l-21 81q121 35 258 35h2q121 -4 208 -105.5t95 -244.5v-20q-4 -176 -4 -347q0 -305 17 -319h-96l-3 82q-102 -102 -247 -102q-135 0 -232.5 91t-97.5 218zM170 289q0 -92 70.5 -156.5 t171.5 -64.5q102 0 174.5 64.5t72.5 156.5v227h-233q-109 0 -182.5 -63.5t-73.5 -163.5z" />
<glyph unicode="b" horiz-adv-x="1071" d="M106 0q10 16 19 193v1222h86v-459q113 80 303 80q203 0 347.5 -155.5t144.5 -370.5q0 -217 -143.5 -371.5t-348.5 -158.5q-195 10 -309 81l2 -61h-101zM205 193q0 -49 91 -87t218 -40q166 4 286 134t120 310q0 178 -120 309t-286 131q-119 0 -208 -31.5t-101 -78.5v-647z " />
<glyph unicode="c" horiz-adv-x="978" d="M47 508q0 217 144.5 372.5t345.5 155.5q207 0 352 -159l-62 -64q-117 137 -290 137q-168 0 -286 -129t-118 -313q0 -182 118 -311t286 -129t286 131l62 -60q-152 -158 -348 -157q-201 0 -345.5 154.5t-144.5 371.5z" />
<glyph unicode="d" horiz-adv-x="1093" d="M104 516q0 215 144.5 366.5t347.5 153.5h4h-4q190 0 303 -80v459h86v-1218q0 -178 14 -191h-100v60q-102 -70 -303 -80q-205 4 -348.5 157.5t-143.5 372.5zM188 516q0 -180 119 -310t289 -136h4q125 6 212 43t87 84v645q-12 45 -98 76.5t-205 31.5q-170 -4 -289 -131 t-119 -303z" />
<glyph unicode="e" horiz-adv-x="933" d="M59 471v39q0 217 120 372.5t288 155.5q170 0 286.5 -149.5t116.5 -368.5v-49h-723q10 -170 107.5 -286.5t234.5 -118.5q111 0 267 75l35 -75q-100 -55 -246 -82h-2q-16 -2 -54 -2q-170 0 -294 142t-136 347zM147 555h641q-12 168 -104 281.5t-217 113.5 q-123 0 -214.5 -114.5t-105.5 -280.5z" />
<glyph unicode="f" horiz-adv-x="671" d="M76 913v88h151q2 0 2 15l-2 39v24q8 141 94.5 242.5t204.5 101.5q66 0 99 -4l-25 -84q-18 4 -74 4q-90 -2 -152.5 -86t-62.5 -198v-54h271v-88h-271l2 -913h-80q-2 604 -2 913h-155z" />
<glyph unicode="g" horiz-adv-x="1128" d="M70 -82q0 90 58 166t155 117q-23 39 -23 96q0 72 43 111q-152 109 -151 274q0 147 118.5 250.5t288.5 103.5q68 0 154 -22h354l-84 -86h-129q113 -96 113 -246q0 -145 -119 -247.5t-289 -102.5q-37 0 -91 12t-77 12q-68 0 -67 -55q0 -66 71 -65q8 0 20.5 1t16.5 1 q14 4 47 4q172 0 292 -94.5t120 -229.5t-120 -231.5t-292 -96.5q-168 0 -288.5 97.5t-120.5 230.5zM152 -82q0 -100 97 -173t230 -73q139 0 235.5 73t96.5 173t-97.5 173t-234.5 73q-131 0 -229 -74t-98 -172zM236 682q0 -111 95 -189.5t228 -78.5q137 0 232.5 78.5 t95.5 189.5q0 115 -94.5 193.5t-233.5 78.5q-135 0 -229 -78.5t-94 -193.5z" />
<glyph unicode="h" horiz-adv-x="931" d="M94 1419h86v-540q104 160 285 159q143 0 241.5 -108.5t102.5 -263.5l6 -660h-86v660q-4 121 -84 204.5t-192 83.5q-100 0 -178 -74.5t-95 -183.5l2 -696h-86z" />
<glyph unicode="i" horiz-adv-x="362" d="M117 1331.5q0 22.5 17.5 38.5t41.5 16q23 0 41.5 -17t18.5 -37.5t-18.5 -38t-41.5 -17.5q-25 0 -42 16.5t-17 39zM133 1024h84l2 -1024h-84z" />
<glyph unicode="j" horiz-adv-x="724" d="M106 -397l9 80q16 0 45.5 -3.5t44.5 -3.5l4 7q88 0 148.5 80.5t60.5 193.5v1069h86v-1089q-10 -139 -94 -238.5t-201 -104.5h-4q-20 0 -57.5 4.5t-41.5 4.5zM401 1321q0 25 15.5 40t42.5 15q20 0 36.5 -15t16.5 -40q0 -23 -16.5 -39t-36.5 -16q-25 0 -41.5 16t-16.5 39z " />
<glyph unicode="k" horiz-adv-x="901" d="M117 0q8 16 8 92v1323h86v-731l391 328h131l-311 -258l432 -754h-100l-398 692l-145 -121l2 -571h-96z" />
<glyph unicode="l" horiz-adv-x="331" d="M133 1415h86l2 -1415h-86z" />
<glyph unicode="m" horiz-adv-x="1513" d="M74 1024h96v-96v-54q104 160 281 160q104 0 190 -63.5t129 -163.5q39 115 128 173t185 58q143 0 241.5 -107.5t102.5 -264.5l5 -662h-86v662q-4 119 -83 202.5t-188 83.5q-102 0 -180 -74.5t-94 -181.5v-692h-86v658q-2 121 -82 203.5t-193 82.5q-100 0 -177 -73.5 t-93 -182.5l2 -692h-86l-2 924q0 90 -10 100z" />
<glyph unicode="n" horiz-adv-x="886" d="M70 1016h96v-82v-55q104 162 285 161q143 0 242.5 -108.5t103.5 -265.5l6 -666h-86l-2 666q-2 121 -83 204.5t-192 83.5q-102 0 -180 -73.5t-94 -184.5l2 -696h-86l-2 930q0 76 -10 86z" />
<glyph unicode="o" horiz-adv-x="1050" d="M45 506q0 219 141.5 374.5t339.5 155.5q197 0 336 -155.5t139 -374.5q0 -217 -139 -371.5t-336 -154.5q-199 0 -340 154.5t-141 371.5zM131 506q0 -182 115.5 -311t279.5 -129q160 0 273.5 129t113.5 311q0 184 -113.5 314t-273.5 130q-164 0 -279.5 -130t-115.5 -314z " />
<glyph unicode="p" horiz-adv-x="1036" d="M63 1022h103v-61q127 82 307 81q207 -4 350.5 -156.5t143.5 -369.5q0 -221 -144.5 -376.5t-349.5 -155.5q-186 0 -305 79v-462h-84v1235q-7 170 -21 186zM166 178q10 -43 99 -74.5t208 -35.5q170 4 289 134t119 314q0 182 -120 310t-288 128q-127 0 -217 -34.5t-90 -83.5 v-658z" />
<glyph unicode="q" horiz-adv-x="1050" d="M78 528q0 209 139 358.5t334 149.5q188 0 299 -73v49h82v-1411h-82v499q-115 -80 -299 -80h6h-6q-195 4 -334 152.5t-139 355.5zM160 528.5q0 -176.5 114.5 -299.5t276.5 -127q117 0 203 32t96 77v625q0 49 -86 83.5t-207 34.5h-6q-162 0 -276.5 -124.5t-114.5 -301z" />
<glyph unicode="r" horiz-adv-x="571" d="M82 1026h96v-152q104 162 283 162q33 0 49 -6l-21 -84q-14 4 -38 4q-102 0 -179 -73.5t-94 -184.5l2 -692h-86l-2 926q0 94 -10 100z" />
<glyph unicode="s" horiz-adv-x="854" d="M104 776q0 115 100.5 186.5t241.5 71.5q92 0 178.5 -34.5t141.5 -92.5l-70 -51q-96 92 -258 92q-106 0 -175.5 -49t-69.5 -127q0 -74 71.5 -136.5t181.5 -78.5q139 -20 230.5 -107.5t91.5 -195.5q0 -119 -97.5 -194.5t-236.5 -75.5q-96 0 -186 35.5t-142 97.5l66 51 q100 -100 256 -100q109 0 181.5 52t72.5 134q0 78 -71.5 142.5t-180.5 80.5q-139 20 -232.5 106.5t-93.5 192.5z" />
<glyph unicode="t" horiz-adv-x="696" d="M104 922v88h152v405h86v-405h276v-88h-276l2 -922h-82q-2 608 -2 922h-156z" />
<glyph unicode="u" horiz-adv-x="921" d="M96 369v651h84v-651l4 -11q4 -119 84 -203.5t191 -84.5q102 0 179 75.5t89 182.5v696h86v-926q0 -90 12 -98h-96l-2 94v49q-47 -74 -122 -117.5t-161 -43.5q-141 0 -239.5 109.5t-102.5 266.5z" />
<glyph unicode="v" horiz-adv-x="1024" d="M49 1024h92l367 -905l364 905h99l-416 -1024h-92z" />
<glyph unicode="w" horiz-adv-x="1443" d="M39 1024h92l367 -905l164 405l-201 500h98l361 -905l364 905h98l-415 -1024l-95 6l-159 400l-168 -406l-94 6z" />
<glyph unicode="x" horiz-adv-x="909" d="M68 0l321 530l-313 494h108l262 -422l269 422h106l-317 -510l319 -514h-102l-281 442l-270 -442h-102z" />
<glyph unicode="y" horiz-adv-x="1095" d="M109 -399l10 88q2 -4 8 -7.5t8 -5.5h4q6 0 22.5 -1t24.5 -1q74 0 141.5 50.5t104.5 138.5l82 203l-395 970h92l346 -864l340 864h92l-393 -964l-90 -240l-4 -18q-47 -104 -134 -164t-186 -60q-32 1 -73 11z" />
<glyph unicode="z" horiz-adv-x="925" d="M92 88l639 848h-633v88h746v-88l-639 -848h639l2 -88h-752z" />
<glyph unicode="{" horiz-adv-x="456" d="M86 684v86h41q39 0 64.5 26.5t25.5 65.5v461v4v6q6 37 42 59.5t81 22.5v-88q-35 0 -35 -4v-485q-10 -27 -34.5 -47.5t-53.5 -20.5v-86q68 0 88 -66v-522q0 -10 35 -10l2 -86q-41 0 -83 27.5t-42 68.5v496q0 39 -25.5 65.5t-64.5 26.5h-41z" />
<glyph unicode="|" horiz-adv-x="268" d="M115 2v1466h53v-1466h-53z" />
<glyph unicode="}" horiz-adv-x="385" d="M57 86q25 0 41 10v522q12 66 82 66l4 86q-33 0 -56.5 19.5t-29.5 48.5v485q-6 4 -41 4v88q51 0 84 -22.5t39 -59.5l4 -6v-4v-461q0 -39 23.5 -65.5t60.5 -26.5h43v-86h-43q-37 0 -60.5 -25.5t-23.5 -66.5v-496q0 -39 -40 -67.5t-85 -28.5z" />
<glyph unicode="~" horiz-adv-x="710" d="M66 655q74 51 188 52q41 0 103.5 -20.5t101.5 -20.5q104 0 159 45l29 -62q-74 -53 -182 -53q-74 0 -127 29q-37 12 -82 12q-100 0 -156 -45z" />
<glyph unicode="&#xa1;" horiz-adv-x="327" d="M117 1374q0 20 13 34.5t33.5 14.5t35 -14t14.5 -34.5t-14.5 -34t-34.5 -13.5q-43 0 -47 47zM127 1204h74l2 -1204h-74z" />
<glyph unicode="&#xa2;" horiz-adv-x="978" d="M47 508q0 205 129 355.5t316 168.5v139h96v-139q174 -18 301 -155l-62 -64q-98 115 -239 133v-876q135 18 235 129l62 -60q-133 -135 -297 -153v-140h-96v140q-184 16 -314.5 167.5t-130.5 354.5zM133 508q0 -168 103.5 -294t255.5 -144v876q-154 -18 -256.5 -143 t-102.5 -295z" />
<glyph unicode="&#xa3;" horiz-adv-x="1138" d="M51 616v86h246v713h86v-713h375v-86h-375v-530h690l2 -86h-776l-2 616h-246z" />
<glyph unicode="&#xa5;" horiz-adv-x="1394" d="M72 1415h116l504 -692l512 692h115l-580 -774v-80h299v-90h-299v-78h299v-90h-299l2 -303h-88l-2 303h-299v90h299v78h-299v90h299v80z" />
<glyph unicode="&#xa6;" horiz-adv-x="268" d="M115 2v703h53v-703h-53zM115 840v628h53v-628h-53z" />
<glyph unicode="&#xa7;" horiz-adv-x="729" d="M82 791q0 109 86 172q-6 29 -6 53q0 109 81 172t199 63q100 0 199 -45l-37 -82q-80 41 -166 41q-80 0 -135 -41t-55 -110v-8q51 18 114 18q94 0 201 -45l-37 -82q-82 41 -168 41q-51 0 -88 -14q55 -98 166 -152q106 -51 169 -137t63 -178q0 -100 -84 -178q4 -33 4 -48 q0 -113 -85 -181t-200 -68q-98 0 -197 49l37 71q80 -37 158 -36q86 0 144.5 44t58.5 121q-53 -23 -125 -22q-102 0 -195 47l37 76q84 -39 162 -39q51 0 102 20q-47 102 -166 160q-106 49 -171.5 138.5t-65.5 179.5zM170 782q0 -63 51 -128.5t137 -106.5q133 -61 193 -178 q6 6 14 22q16 33 17 70q0 68 -51.5 135.5t-135.5 105.5q-127 57 -192 172q-33 -33 -33 -92z" />
<glyph unicode="&#xa8;" horiz-adv-x="538" d="M78 1331.5q0 22.5 17.5 38.5t41.5 16q23 0 41.5 -17t18.5 -37.5t-18.5 -38t-41.5 -17.5q-25 0 -42 16.5t-17 39zM352 1331.5q0 22.5 17.5 38.5t42.5 16q23 0 41 -17t18 -37.5t-18.5 -38t-40.5 -17.5q-25 0 -42.5 16.5t-17.5 39z" />
<glyph unicode="&#xaa;" horiz-adv-x="366" d="M51 768q0 47 38 81t93 34h72v12q0 35 -19.5 62.5t-46.5 27.5q-57 0 -92 -12l-10 51q43 12 102 12q47 0 80 -40t35 -101q-2 -57 -2 -115q0 -102 23 -125h-70v13q-29 -20 -76 -21q-53 0 -90 35t-37 86zM102 768q0 -27 22.5 -47.5t53.5 -20.5q29 0 52.5 20.5t23.5 47.5v66 h-76q-31 0 -53.5 -20.5t-22.5 -45.5z" />
<glyph unicode="&#xab;" horiz-adv-x="1089" d="M59 569l541 457l57 -65l-477 -402l398 -473l-66 -57zM408 569l540 457l58 -65l-478 -402l398 -473l-66 -57z" />
<glyph unicode="&#xac;" horiz-adv-x="1355" d="M84 707v86h1190v-459h-86v373h-1104z" />
<glyph unicode="&#xad;" horiz-adv-x="862" d="M84 559v86h707v-86h-707z" />
<glyph unicode="&#xb0;" horiz-adv-x="512" d="M53 1221q0 88 58.5 145t148.5 57q80 0 137.5 -58t57.5 -144q0 -80 -57.5 -137.5t-137.5 -57.5q-88 0 -147.5 57.5t-59.5 137.5zM111 1221q0 -53 46 -97.5t103 -44.5q49 0 92 45t43 97q0 57 -43 104t-92 47q-57 0 -103 -46t-46 -105z" />
<glyph unicode="&#xb1;" horiz-adv-x="925" d="M111 315v86h706v-86h-706zM113 942v86h309v309h86v-309h311v-86h-311v-311h-86v311h-309z" />
<glyph unicode="&#xb2;" horiz-adv-x="573" d="M68 649v62l317 354q49 53 49 121q0 70 -55 122t-125 52q-74 0 -137 -64l-49 52q86 76 186 75.5t171 -70t71 -167.5q0 -88 -64 -168l-272 -307h336v-62h-428z" />
<glyph unicode="&#xb3;" horiz-adv-x="542" d="M37 725l39 41h16q57 -66 139 -66q66 0 117 45.5t51 106.5q0 57 -47 103t-106 53h-111v63h111q59 4 107 47t48 96.5t-51 96.5t-117 43q-88 0 -149 -68l-47 49q74 80 196 80q98 0 167 -58.5t69 -142.5q0 -123 -115 -176q109 -76 109 -186q0 -88 -67.5 -150.5t-164.5 -62.5 q-118 0 -194 86z" />
<glyph unicode="&#xb4;" horiz-adv-x="428" d="M88 1133l135 178h135l-223 -178h-47z" />
<glyph unicode="&#xb6;" horiz-adv-x="782" d="M53 1079.5q0 139.5 98.5 237.5t237.5 98h160l2 -1415h-160l-2 741q-139 0 -237.5 99.5t-98.5 239zM137 1087q0 -104 65.5 -178.5t159.5 -74.5v505q-94 0 -159.5 -73t-65.5 -179zM598 4v1409h82v-1409h-82z" />
<glyph unicode="&#xb7;" horiz-adv-x="460" d="M127 643q0 39 33 70.5t76 31.5t76.5 -31.5t33.5 -70.5t-33.5 -69.5t-76.5 -30.5t-76 30.5t-33 69.5z" />
<glyph unicode="&#xb9;" horiz-adv-x="538" d="M74 1202l258 213h86v-614h-86v504l-197 -162z" />
<glyph unicode="&#xba;" horiz-adv-x="475" d="M53 831q0 88 53.5 146.5t133.5 58.5q74 0 125 -58t51 -147q0 -80 -52.5 -137t-123.5 -57q-80 0 -133.5 57t-53.5 137zM104 831q0 -53 42 -97t94 -44q45 0 83.5 45t38.5 96q0 59 -38.5 106.5t-83.5 47.5q-53 0 -94.5 -47.5t-41.5 -106.5z" />
<glyph unicode="&#xbb;" horiz-adv-x="1073" d="M59 961l58 65l540 -457l-452 -540l-66 57l398 473zM408 961l57 65l541 -457l-453 -540l-66 57l398 473z" />
<glyph unicode="&#xbc;" horiz-adv-x="782" d="M70 930l129 106h43v-600h-43v545l-99 -80zM324 260v43l235 404l37 -21l-223 -383h211v158h43v-158h100v-43h-100l2 -260h-43l-2 260h-260z" />
<glyph unicode="&#xbd;" horiz-adv-x="727" d="M45 932l129 106h43v-602h-43v547l-98 -80zM279 41l299 334q45 49 45 117q0 76 -52.5 126t-128.5 50q-72 0 -125 -50l-30 31q68 61 155 62q92 0 158 -64.5t66 -154.5q0 -78 -62 -148l-268 -303h330l2 -41h-387z" />
<glyph unicode="&#xbe;" horiz-adv-x="937" d="M66 389l30 29q53 -59 135 -60q72 0 123.5 45.5t51.5 110.5q0 82 -78 126t-176 28v43h94q68 2 115 44t47 97q0 61 -50.5 103t-121.5 42q-88 0 -140 -57l-30 31q63 68 170 67q90 0 153.5 -54t63.5 -132q0 -53 -34 -97t-87 -67q117 -55 117 -174q0 -82 -63.5 -140.5 t-154.5 -58.5q-97 0 -165 74zM479 264v43l236 404l37 -21l-222 -383h209v158h43v-158h103v-43h-103v-260h-43v260h-260z" />
<glyph unicode="&#xbf;" horiz-adv-x="884" d="M96 367q0 156 108.5 271.5t258.5 115.5h115l-193 661h88l193 -661v-88h-203q-117 -4 -200 -91.5t-83 -207.5q0 -123 86 -211t207 -88q160 0 252 147l61 -63q-117 -172 -313 -172q-154 0 -265.5 114.5t-111.5 272.5zM322 1610q0 27 15 43t42 16q23 0 38 -16.5t15 -42.5 q0 -25 -15.5 -41.5t-37.5 -16.5q-27 0 -42 16.5t-15 41.5z" />
<glyph unicode="&#xc0;" d="M66 0l520 1415h71l525 -1415h-90l-222 588h-497l-217 -588h-90zM389 1702h135l135 -178h-47zM403 674h437l-219 590z" />
<glyph unicode="&#xc1;" d="M66 0l520 1415h71l525 -1415h-90l-222 588h-497l-217 -588h-90zM403 674h437l-219 590zM592 1524l135 178h135l-223 -178h-47z" />
<glyph unicode="&#xc2;" d="M66 0l520 1415h71l525 -1415h-90l-222 588h-497l-217 -588h-90zM403 674h437l-219 590z" />
<glyph unicode="&#xc3;" d="M66 0l520 1415h71l525 -1415h-90l-222 588h-497l-217 -588h-90zM358 1638q78 49 177 50q39 0 96 -18.5t92 -18.5q100 0 151 41l29 -58q-72 -49 -176 -49q-66 0 -115 25q-35 12 -77 12q-90 0 -146 -41zM403 674h437l-219 590z" />
<glyph unicode="&#xc4;" d="M66 0l520 1415h71l525 -1415h-90l-222 588h-497l-217 -588h-90zM403 674h437l-219 590zM410 1562.5q0 22.5 17 39t42 16.5q23 0 41 -17.5t18 -38t-18 -38t-41 -17.5q-25 0 -42 16.5t-17 39zM684 1562.5q0 22.5 17.5 39t41.5 16.5q23 0 41.5 -17.5t18.5 -38t-18.5 -38 t-41.5 -17.5q-25 0 -42 16.5t-17 39z" />
<glyph unicode="&#xc5;" d="M422 1606q0 88 58.5 145t148.5 57q80 0 137.5 -58t57.5 -144q0 -80 -57.5 -137.5t-137.5 -57.5q-88 0 -147.5 57.5t-59.5 137.5zM480 1606q0 -53 46 -97.5t103 -44.5q49 0 92 45t43 97q0 57 -43 104t-92 47q-57 0 -103 -46t-46 -105zM66 0l520 1415h71l525 -1415h-90 l-222 588h-497l-217 -588h-90zM403 674h437l-219 590z" />
<glyph unicode="&#xc6;" horiz-adv-x="2213" d="M66 0l520 1415h538h783v-82h-731v-536h624v-86h-624v-625h731l2 -86h-817l-2 588h-717l-217 -588h-90zM403 674h687l18 659h-469z" />
<glyph unicode="&#xc7;" horiz-adv-x="1298" d="M109 700q0 303 188 513t457 210q254 0 438 -194v-2l2 -2l-59 -58l-2 2q-162 172 -379 172q-233 0 -397 -189t-164 -452q0 -258 163.5 -447.5t397.5 -189.5q213 0 374 168l62 -57q-180 -193 -459 -192l-18 -48q25 0 65.5 -34.5t40.5 -79.5q0 -63 -100 -121l-68 51 q27 0 64 18.5t37 55.5q0 33 -35 48t-70 15h-16l2 105q-225 49 -374.5 246.5t-149.5 461.5z" />
<glyph unicode="&#xc8;" horiz-adv-x="993" d="M90 1415h817v-82h-731v-536h625v-86h-625v-625h731l2 -86h-817zM248 1702h135l135 -178h-47z" />
<glyph unicode="&#xc9;" horiz-adv-x="993" d="M90 1415h817v-82h-731v-536h625v-86h-625v-625h731l2 -86h-817zM422 1524l135 178h135l-223 -178h-47z" />
<glyph unicode="&#xca;" horiz-adv-x="993" d="M278 1599l220 217l221 -219l-53 -51l-168 170l-170 -170zM90 1415h817v-82h-731v-536h625v-86h-625v-625h731l2 -86h-817z" />
<glyph unicode="&#xcb;" horiz-adv-x="993" d="M90 1415h817v-82h-731v-536h625v-86h-625v-625h731l2 -86h-817zM295 1564.5q0 22.5 17.5 39t41.5 16.5q23 0 41.5 -17.5t18.5 -38t-18.5 -38t-41.5 -17.5q-25 0 -42 16.5t-17 39zM569 1564.5q0 22.5 17.5 39t42.5 16.5q23 0 41 -17.5t18 -38t-18.5 -38t-40.5 -17.5 q-25 0 -42.5 16.5t-17.5 39z" />
<glyph unicode="&#xcc;" horiz-adv-x="268" d="M-51 1702h135l135 -178h-47zM117 1415h86l2 -1415h-86z" />
<glyph unicode="&#xcd;" horiz-adv-x="315" d="M100 1415h86l2 -1415h-86zM123 1524l135 178h135l-223 -178h-47z" />
<glyph unicode="&#xce;" horiz-adv-x="282" d="M100 1415h86l2 -1415h-86z" />
<glyph unicode="&#xcf;" horiz-adv-x="282" d="M-55 1562.5q0 22.5 17.5 39t41.5 16.5q23 0 41 -17.5t18 -38t-18 -38t-41 -17.5q-25 0 -42 16.5t-17 39zM100 1415h86l2 -1415h-86zM219 1562.5q0 22.5 17.5 39t42.5 16.5q23 0 41 -17.5t18 -38t-18.5 -38t-40.5 -17.5q-25 0 -42.5 16.5t-17.5 39z" />
<glyph unicode="&#xd0;" horiz-adv-x="1337" d="M88 561v86h139v768h523q205 -2 349 -208t144 -496.5t-142.5 -496.5t-346.5 -210l2 -4h-527l-2 561h-139zM313 86h441v4q168 4 285.5 185.5t117.5 435.5q0 252 -118.5 434t-288.5 184h-437v-682h357v-86h-357v-475z" />
<glyph unicode="&#xd1;" horiz-adv-x="1099" d="M96 1415h84l733 -1243v1243h86l2 -1415h-86l-735 1249l2 -1249h-84zM274 1599q61 33 144 33q55 0 130 -29.5t128 -29.5q74 0 119 29l22 -62q-59 -33 -141 -33q-90 0 -152 39q-47 20 -106 21q-74 0 -119 -29z" />
<glyph unicode="&#xd2;" horiz-adv-x="1413" d="M59 707q0 297 188.5 506.5t454.5 209.5q274 0 459 -207.5t185 -508.5q0 -319 -197 -527q-182 -199 -447 -198q-262 0 -452.5 210t-190.5 515zM147 707q0 -266 161 -451.5t394 -185.5q238 0 400 185t162 452q0 279 -179 460q-152 168 -383 168t-393 -183t-162 -445z M434 1702h135l136 -178h-48z" />
<glyph unicode="&#xd3;" horiz-adv-x="1413" d="M59 707q0 297 188.5 506.5t454.5 209.5q274 0 459 -207.5t185 -508.5q0 -319 -197 -527q-182 -199 -447 -198q-262 0 -452.5 210t-190.5 515zM147 707q0 -266 161 -451.5t394 -185.5q238 0 400 185t162 452q0 279 -179 460q-152 168 -383 168t-393 -183t-162 -445z M705 1524l135 178h135l-223 -178h-47z" />
<glyph unicode="&#xd4;" horiz-adv-x="1413" d="M481 1599l220 217l221 -219l-53 -51l-168 170l-170 -170zM59 707q0 297 188.5 506.5t454.5 209.5q274 0 459 -207.5t185 -508.5q0 -319 -197 -527q-182 -199 -447 -198q-262 0 -452.5 210t-190.5 515zM147 707q0 -266 161 -451.5t394 -185.5q238 0 400 185t162 452 q0 279 -179 460q-152 168 -383 168t-393 -183t-162 -445z" />
<glyph unicode="&#xd5;" horiz-adv-x="1413" d="M59 707q0 297 188.5 506.5t454.5 209.5q274 0 459 -207.5t185 -508.5q0 -319 -197 -527q-182 -199 -447 -198q-262 0 -452.5 210t-190.5 515zM147 707q0 -266 161 -451.5t394 -185.5q238 0 400 185t162 452q0 279 -179 460q-152 168 -383 168t-393 -183t-162 -445z M430 1602q61 33 143 32q55 0 130 -29.5t128 -29.5q74 0 119 29l23 -62q-59 -33 -142 -33q-90 0 -151 39q-47 20 -107 21q-74 0 -118 -29z" />
<glyph unicode="&#xd6;" horiz-adv-x="1413" d="M59 707q0 297 188.5 506.5t454.5 209.5q274 0 459 -207.5t185 -508.5q0 -319 -197 -527q-182 -199 -447 -198q-262 0 -452.5 210t-190.5 515zM147 707q0 -266 161 -451.5t394 -185.5q238 0 400 185t162 452q0 279 -179 460q-152 168 -383 168t-393 -183t-162 -445z M506 1564.5q0 22.5 17.5 39t41.5 16.5q23 0 41.5 -17.5t18.5 -38t-18.5 -38t-41.5 -17.5q-25 0 -42 16.5t-17 39zM780 1564.5q0 22.5 17.5 39t42.5 16.5q23 0 41 -17.5t18 -38t-18.5 -38t-40.5 -17.5q-25 0 -42.5 16.5t-17.5 39z" />
<glyph unicode="&#xd7;" horiz-adv-x="751" d="M82 424l219 221l-217 217l59 62l219 -219l220 219l61 -60l-219 -219l219 -221l-59 -59l-222 219l-219 -219z" />
<glyph unicode="&#xd8;" horiz-adv-x="1413" d="M59 707q0 297 188.5 506.5t454.5 209.5q104 0 205 -34l11 26h92l-23 -61q168 -94 263.5 -264t95.5 -383q0 -319 -197 -527q-182 -199 -447 -198q-98 0 -202 36l-4 -18h-95l19 55q-160 86 -260.5 262.5t-100.5 389.5zM147 707q0 -184 83 -338t219 -234l428 1170 q-82 31 -175 30q-231 0 -393 -183t-162 -445zM528 100q82 -31 174 -30q238 0 400 185t162 452q0 279 -179 460q-61 63 -129 103z" />
<glyph unicode="&#xd9;" horiz-adv-x="1224" d="M88 354v1061h92v-1061q8 -119 134 -201.5t302 -82.5q170 0 294 83t132 201v1061h86v-1061q-6 -154 -156.5 -263t-355.5 -109q-211 0 -364.5 109t-163.5 263zM377 1702h135l135 -178h-47z" />
<glyph unicode="&#xda;" horiz-adv-x="1224" d="M88 354v1061h92v-1061q8 -119 134 -201.5t302 -82.5q170 0 294 83t132 201v1061h86v-1061q-6 -154 -156.5 -263t-355.5 -109q-211 0 -364.5 109t-163.5 263zM584 1524l135 178h135l-223 -178h-47z" />
<glyph unicode="&#xdb;" horiz-adv-x="1224" d="M387 1599l220 217l221 -219l-53 -51l-168 170l-170 -170zM88 354v1061h92v-1061q8 -119 134 -201.5t302 -82.5q170 0 294 83t132 201v1061h86v-1061q-6 -154 -156.5 -263t-355.5 -109q-211 0 -364.5 109t-163.5 263z" />
<glyph unicode="&#xdc;" horiz-adv-x="1224" d="M88 354v1061h92v-1061q8 -119 134 -201.5t302 -82.5q170 0 294 83t132 201v1061h86v-1061q-6 -154 -156.5 -263t-355.5 -109q-211 0 -364.5 109t-163.5 263zM412 1562.5q0 22.5 17 39t42 16.5q23 0 41 -17.5t18 -38t-18 -38t-41 -17.5q-25 0 -42 16.5t-17 39zM686 1562.5 q0 22.5 17.5 39t41.5 16.5q23 0 41.5 -17.5t18.5 -38t-18.5 -38t-41.5 -17.5q-25 0 -42 16.5t-17 39z" />
<glyph unicode="&#xdd;" horiz-adv-x="1394" d="M72 1415h116l504 -692l512 692h115l-580 -774l2 -641h-88l-2 641zM686 1524l135 178h135l-223 -178h-47z" />
<glyph unicode="&#xde;" horiz-adv-x="1095" d="M127 -401v1818h86v-456q131 80 303 79q207 -4 350.5 -156.5t143.5 -369.5q0 -221 -144.5 -376.5t-349.5 -155.5q-141 0 -305 79v-462h-84zM207 842l6 -647q-4 -49 86 -86t217 -41q166 4 286 134t120 310q0 178 -120 309t-286 131q-119 0 -208 -31.5t-101 -78.5z" />
<glyph unicode="&#xdf;" horiz-adv-x="1064" d="M109 -354v1769h86h366q154 -2 264.5 -105.5t110.5 -242.5q0 -102 -55.5 -186t-147.5 -131q106 -45 169 -139.5t63 -209.5q0 -162 -117 -278.5t-287 -118.5h-174l-82 82h256q133 6 225.5 98t92.5 217q0 123 -98.5 212t-256.5 98h-329v-1065h-86zM195 797h366 q121 4 205 80.5t84 189.5q0 104 -84 182t-205 84h-37h-329v-536z" />
<glyph unicode="&#xe0;" horiz-adv-x="831" d="M82 289q0 135 100.5 223t243.5 88h233v45q0 127 -60 215t-157 90h-2q-133 0 -237 -30l-21 81q121 35 258 35h2q121 -4 208 -105.5t95 -244.5v-20q-4 -176 -4 -347q0 -305 17 -319h-96l-3 82q-102 -102 -247 -102q-135 0 -232.5 91t-97.5 218zM170 289q0 -92 70.5 -156.5 t171.5 -64.5q102 0 174.5 64.5t72.5 156.5v227h-233q-109 0 -182.5 -63.5t-73.5 -163.5zM186 1311h136l135 -178h-47z" />
<glyph unicode="&#xe1;" horiz-adv-x="831" d="M82 289q0 135 100.5 223t243.5 88h233v45q0 127 -60 215t-157 90h-2q-133 0 -237 -30l-21 81q121 35 258 35h2q121 -4 208 -105.5t95 -244.5v-20q-4 -176 -4 -347q0 -305 17 -319h-96l-3 82q-102 -102 -247 -102q-135 0 -232.5 91t-97.5 218zM170 289q0 -92 70.5 -156.5 t171.5 -64.5q102 0 174.5 64.5t72.5 156.5v227h-233q-109 0 -182.5 -63.5t-73.5 -163.5zM365 1133l135 178h135l-223 -178h-47z" />
<glyph unicode="&#xe2;" horiz-adv-x="831" d="M82 289q0 135 100.5 223t243.5 88h233v45q0 127 -60 215t-157 90h-2q-133 0 -237 -30l-21 81q121 35 258 35h2q121 -4 208 -105.5t95 -244.5v-20q-4 -176 -4 -347q0 -305 17 -319h-96l-3 82q-102 -102 -247 -102q-135 0 -232.5 91t-97.5 218zM170 289q0 -92 70.5 -156.5 t171.5 -64.5q102 0 174.5 64.5t72.5 156.5v227h-233q-109 0 -182.5 -63.5t-73.5 -163.5zM193 1163l219 217l221 -219l-53 -51l-168 170l-170 -170z" />
<glyph unicode="&#xe3;" horiz-adv-x="831" d="M82 289q0 135 100.5 223t243.5 88h233v45q0 127 -60 215t-157 90h-2q-133 0 -237 -30l-21 81q121 35 258 35h2q121 -4 208 -105.5t95 -244.5v-20q-4 -176 -4 -347q0 -305 17 -319h-96l-3 82q-102 -102 -247 -102q-135 0 -232.5 91t-97.5 218zM129 1198q74 53 180 53 q37 0 91.5 -16t84.5 -16q102 0 160 47l29 -58q-68 -55 -180 -55q-61 0 -111 23q-35 10 -72 10q-98 0 -149 -45zM170 289q0 -92 70.5 -156.5t171.5 -64.5q102 0 174.5 64.5t72.5 156.5v227h-233q-109 0 -182.5 -63.5t-73.5 -163.5z" />
<glyph unicode="&#xe4;" horiz-adv-x="831" d="M82 289q0 135 100.5 223t243.5 88h233v45q0 127 -60 215t-157 90h-2q-133 0 -237 -30l-21 81q121 35 258 35h2q121 -4 208 -105.5t95 -244.5v-20q-4 -176 -4 -347q0 -305 17 -319h-96l-3 82q-102 -102 -247 -102q-135 0 -232.5 91t-97.5 218zM170 289q0 -92 70.5 -156.5 t171.5 -64.5q102 0 174.5 64.5t72.5 156.5v227h-233q-109 0 -182.5 -63.5t-73.5 -163.5zM238 1331.5q0 22.5 17 38.5t42 16q23 0 41 -17t18 -37.5t-18.5 -38t-40.5 -17.5q-25 0 -42 16.5t-17 39zM512 1331.5q0 22.5 17.5 38.5t41.5 16q23 0 41.5 -17t18.5 -37.5t-18.5 -38 t-41.5 -17.5q-25 0 -42 16.5t-17 39z" />
<glyph unicode="&#xe5;" horiz-adv-x="831" d="M241 1354q0 88 58.5 145t148.5 57q80 0 137.5 -58t57.5 -144q0 -80 -57.5 -137.5t-137.5 -57.5q-88 0 -147.5 57.5t-59.5 137.5zM299 1354q0 -53 46 -97.5t103 -44.5q49 0 92 45t43 97q0 57 -43 104t-92 47q-57 0 -103 -46t-46 -105zM82 289q0 135 100.5 223t243.5 88 h233v45q0 127 -60 215t-157 90h-2q-133 0 -237 -30l-21 81q121 35 258 35h2q121 -4 208 -105.5t95 -244.5v-20q-4 -176 -4 -347q0 -305 17 -319h-96l-3 82q-102 -102 -247 -102q-135 0 -232.5 91t-97.5 218zM170 289q0 -92 70.5 -156.5t171.5 -64.5q102 0 174.5 64.5 t72.5 156.5v227h-233q-109 0 -182.5 -63.5t-73.5 -163.5z" />
<glyph unicode="&#xe6;" horiz-adv-x="1521" d="M82 289q0 129 97 220t233 91h235q4 35 12 66q-2 117 -65.5 198.5t-151.5 85.5h-2q-133 0 -237 -30l-21 81q121 35 258 35h2q90 -2 165 -62.5t110 -156.5q57 102 144 161.5t188 59.5q170 0 286.5 -149.5t116.5 -368.5v-49h-711v-94q33 -135 124 -223t206 -88q111 0 266 75 l35 -75q-100 -55 -246 -82h-2q-16 -2 -53 -2q-201 0 -328 186q4 -162 15 -168h-96l-3 82q-102 -102 -247 -102q-135 0 -232.5 91t-97.5 218zM170 289q0 -92 70.5 -156.5t171.5 -64.5q102 0 174.5 64.5t72.5 156.5v63q-14 55 -18 119v45h-229q-100 0 -171 -66.5t-71 -160.5z M743 555h627q-12 168 -104 281.5t-217 113.5t-215.5 -114.5t-90.5 -280.5z" />
<glyph unicode="&#xe7;" horiz-adv-x="1009" d="M78 510q0 217 143.5 371.5t347.5 154.5q211 0 353 -162l-60 -59q-125 135 -293 135t-286.5 -129t-118.5 -311q0 -184 118.5 -313t286.5 -129t285 127l61 -60q-131 -141 -323 -153l-17 -56q25 0 66 -34.5t41 -79.5q0 -63 -102 -125l-66 53q35 4 66.5 21.5t31.5 45.5 q0 39 -33.5 55.5t-70.5 16.5q-4 0 -10 -1t-9 -1l5 111q-178 31 -297 177t-119 345z" />
<glyph unicode="&#xe8;" horiz-adv-x="933" d="M59 471v39q0 217 120 372.5t288 155.5q170 0 286.5 -149.5t116.5 -368.5v-49h-723q10 -170 107.5 -286.5t234.5 -118.5q111 0 267 75l35 -75q-100 -55 -246 -82h-2q-16 -2 -54 -2q-170 0 -294 142t-136 347zM147 555h641q-12 168 -104 281.5t-217 113.5 q-123 0 -214.5 -114.5t-105.5 -280.5zM246 1311h135l135 -178h-47z" />
<glyph unicode="&#xe9;" horiz-adv-x="933" d="M59 471v39q0 217 120 372.5t288 155.5q170 0 286.5 -149.5t116.5 -368.5v-49h-723q10 -170 107.5 -286.5t234.5 -118.5q111 0 267 75l35 -75q-100 -55 -246 -82h-2q-16 -2 -54 -2q-170 0 -294 142t-136 347zM147 555h641q-12 168 -104 281.5t-217 113.5 q-123 0 -214.5 -114.5t-105.5 -280.5zM424 1133l135 178h135l-223 -178h-47z" />
<glyph unicode="&#xea;" horiz-adv-x="933" d="M59 471v39q0 217 120 372.5t288 155.5q170 0 286.5 -149.5t116.5 -368.5v-49h-723q10 -170 107.5 -286.5t234.5 -118.5q111 0 267 75l35 -75q-100 -55 -246 -82h-2q-16 -2 -54 -2q-170 0 -294 142t-136 347zM147 555h641q-12 168 -104 281.5t-217 113.5 q-123 0 -214.5 -114.5t-105.5 -280.5zM244 1163l219 217l221 -219l-53 -51l-168 170l-170 -170z" />
<glyph unicode="&#xeb;" horiz-adv-x="933" d="M59 471v39q0 217 120 372.5t288 155.5q170 0 286.5 -149.5t116.5 -368.5v-49h-723q10 -170 107.5 -286.5t234.5 -118.5q111 0 267 75l35 -75q-100 -55 -246 -82h-2q-16 -2 -54 -2q-170 0 -294 142t-136 347zM147 555h641q-12 168 -104 281.5t-217 113.5 q-123 0 -214.5 -114.5t-105.5 -280.5zM268 1331.5q0 22.5 17.5 38.5t42.5 16q23 0 41 -17t18 -37.5t-18.5 -38t-40.5 -17.5q-25 0 -42.5 16.5t-17.5 39zM543 1331.5q0 22.5 17.5 38.5t41.5 16q23 0 41.5 -17t18.5 -37.5t-18.5 -38t-41.5 -17.5q-25 0 -42 16.5t-17 39z" />
<glyph unicode="&#xec;" horiz-adv-x="432" d="M31 1311h135l135 -178h-47zM195 1024h84l2 -1024h-84z" />
<glyph unicode="&#xed;" horiz-adv-x="432" d="M104 1133l136 178h135l-223 -178h-48zM133 1024h84l2 -1024h-84z" />
<glyph unicode="&#xee;" horiz-adv-x="362" d="M-41 1163l219 217l221 -219l-53 -51l-168 170l-170 -170zM133 1024h84l2 -1024h-84z" />
<glyph unicode="&#xef;" horiz-adv-x="362" d="M23 1331.5q0 22.5 17 38.5t42 16q23 0 41 -17t18 -37.5t-18.5 -38t-40.5 -17.5q-25 0 -42 16.5t-17 39zM133 1024h84l2 -1024h-84zM215 1331.5q0 22.5 17.5 38.5t41.5 16q23 0 41.5 -17t18.5 -37.5t-18.5 -38t-41.5 -17.5q-25 0 -42 16.5t-17 39z" />
<glyph unicode="&#xf0;" horiz-adv-x="1001" d="M78 985v14q0 176 125 301t301 125t299 -119.5t131 -291.5v-6q6 -82 6 -344q0 -182 -25 -314q-31 -160 -156.5 -262t-291.5 -102q-98 0 -190.5 46t-153.5 122l84 67q104 -147 274 -147q133 0 231.5 84t127.5 215q23 158 22 323v70q-57 -86 -152.5 -136t-209.5 -50 q-170 0 -294 117.5t-128 287.5zM160 989q8 -135 106.5 -230t233.5 -95q145 0 246.5 99t101.5 243q0 135 -103.5 233t-238.5 98q-143 0 -244.5 -103.5t-101.5 -244.5z" />
<glyph unicode="&#xf1;" horiz-adv-x="886" d="M70 1016h96v-82v-55q104 162 285 161q143 0 242.5 -108.5t103.5 -265.5l6 -666h-86l-2 666q-2 121 -83 204.5t-192 83.5q-102 0 -180 -73.5t-94 -184.5l2 -696h-86l-2 930q0 76 -10 86zM156 1290q70 49 180 49q39 0 94 -17t90 -17q98 0 150 45l30 -60q-76 -51 -182 -51 q-63 0 -108 25q-33 12 -80 12q-82 0 -146 -45z" />
<glyph unicode="&#xf2;" horiz-adv-x="1079" d="M45 506q0 219 141.5 374.5t339.5 155.5q197 0 336 -155.5t139 -374.5q0 -217 -139 -371.5t-336 -154.5q-199 0 -340 154.5t-141 371.5zM131 506q0 -182 115.5 -311t279.5 -129q160 0 273.5 129t113.5 311q0 184 -113.5 314t-273.5 130q-164 0 -279.5 -130t-115.5 -314z M319 1311h136l135 -178h-47z" />
<glyph unicode="&#xf3;" horiz-adv-x="1079" d="M45 506q0 219 141.5 374.5t339.5 155.5q197 0 336 -155.5t139 -374.5q0 -217 -139 -371.5t-336 -154.5q-199 0 -340 154.5t-141 371.5zM131 506q0 -182 115.5 -311t279.5 -129q160 0 273.5 129t113.5 311q0 184 -113.5 314t-273.5 130q-164 0 -279.5 -130t-115.5 -314z M510 1133l135 178h135l-223 -178h-47z" />
<glyph unicode="&#xf4;" horiz-adv-x="1050" d="M45 506q0 219 141.5 374.5t339.5 155.5q197 0 336 -155.5t139 -374.5q0 -217 -139 -371.5t-336 -154.5q-199 0 -340 154.5t-141 371.5zM131 506q0 -182 115.5 -311t279.5 -129q160 0 273.5 129t113.5 311q0 184 -113.5 314t-273.5 130q-164 0 -279.5 -130t-115.5 -314z M303 1163l219 217l221 -219l-53 -51l-168 170l-170 -170z" />
<glyph unicode="&#xf5;" horiz-adv-x="1050" d="M45 506q0 219 141.5 374.5t339.5 155.5q197 0 336 -155.5t139 -374.5q0 -217 -139 -371.5t-336 -154.5q-199 0 -340 154.5t-141 371.5zM131 506q0 -182 115.5 -311t279.5 -129q160 0 273.5 129t113.5 311q0 184 -113.5 314t-273.5 130q-164 0 -279.5 -130t-115.5 -314z M264 1276q61 33 144 33q55 0 129.5 -30t128.5 -30q74 0 118 29l23 -61q-59 -33 -141 -33q-90 0 -152 39q-47 20 -106 20q-74 0 -119 -29z" />
<glyph unicode="&#xf6;" horiz-adv-x="1079" d="M45 506q0 219 141.5 374.5t339.5 155.5q197 0 336 -155.5t139 -374.5q0 -217 -139 -371.5t-336 -154.5q-199 0 -340 154.5t-141 371.5zM131 506q0 -182 115.5 -311t279.5 -129q160 0 273.5 129t113.5 311q0 184 -113.5 314t-273.5 130q-164 0 -279.5 -130t-115.5 -314z M352 1331.5q0 22.5 17.5 38.5t42.5 16q23 0 41 -17t18 -37.5t-18.5 -38t-40.5 -17.5q-25 0 -42.5 16.5t-17.5 39zM627 1331.5q0 22.5 17.5 38.5t41.5 16q23 0 41 -17t18 -37.5t-18 -38t-41 -17.5q-25 0 -42 16.5t-17 39z" />
<glyph unicode="&#xf7;" horiz-adv-x="870" d="M72 559v86h706v-86h-706zM362 287v131h132v-131h-132zM362 793v131h132v-131h-132z" />
<glyph unicode="&#xf8;" horiz-adv-x="1050" d="M45 506q0 219 141.5 374.5t340 155.5t339.5 -162l-65 -57q-113 133 -275 133q-164 0 -279.5 -130t-115.5 -314q0 -113 49 -215l-65 -58q-70 123 -70 273zM160 166l63 55q117 -156 303 -155q160 0 273.5 129t113.5 311q0 135 -67 248l67 57q88 -137 88 -305 q0 -217 -139 -371.5t-336 -154.5q-223 0 -366 186z" />
<glyph unicode="&#xf9;" horiz-adv-x="921" d="M96 369v651h84v-651l4 -11q4 -119 84 -203.5t191 -84.5q102 0 179 75.5t89 182.5v696h86v-926q0 -90 12 -98h-96l-2 94v49q-47 -74 -122 -117.5t-161 -43.5q-141 0 -239.5 109.5t-102.5 266.5zM244 1311h135l135 -178h-47z" />
<glyph unicode="&#xfa;" horiz-adv-x="921" d="M96 369v651h84v-651l4 -11q4 -119 84 -203.5t191 -84.5q102 0 179 75.5t89 182.5v696h86v-926q0 -90 12 -98h-96l-2 94v49q-47 -74 -122 -117.5t-161 -43.5q-141 0 -239.5 109.5t-102.5 266.5zM401 1133l136 178h135l-223 -178h-48z" />
<glyph unicode="&#xfb;" horiz-adv-x="921" d="M96 369v651h84v-651l4 -11q4 -119 84 -203.5t191 -84.5q102 0 179 75.5t89 182.5v696h86v-926q0 -90 12 -98h-96l-2 94v49q-47 -74 -122 -117.5t-161 -43.5q-141 0 -239.5 109.5t-102.5 266.5zM238 1163l219 217l221 -219l-53 -51l-168 170l-170 -170z" />
<glyph unicode="&#xfc;" horiz-adv-x="921" d="M96 369v651h84v-651l4 -11q4 -119 84 -203.5t191 -84.5q102 0 179 75.5t89 182.5v696h86v-926q0 -90 12 -98h-96l-2 94v49q-47 -74 -122 -117.5t-161 -43.5q-141 0 -239.5 109.5t-102.5 266.5zM262 1331.5q0 22.5 17.5 38.5t42.5 16q23 0 41 -17t18 -37.5t-18.5 -38 t-40.5 -17.5q-25 0 -42.5 16.5t-17.5 39zM537 1331.5q0 22.5 17 38.5t42 16q23 0 41 -17t18 -37.5t-18.5 -38t-40.5 -17.5q-25 0 -42 16.5t-17 39z" />
<glyph unicode="&#xfd;" horiz-adv-x="1095" d="M109 -399l10 88q2 -4 8 -7.5t8 -5.5h4q6 0 22.5 -1t24.5 -1q74 0 141.5 50.5t104.5 138.5l82 203l-395 970h92l346 -864l340 864h92l-393 -964l-90 -240l-4 -18q-47 -104 -134 -164t-186 -60q-32 1 -73 11zM530 1133l136 178h135l-223 -178h-48z" />
<glyph unicode="&#xfe;" horiz-adv-x="1058" d="M127 -401v1818h86v-456q131 80 303 79q207 -4 350.5 -156.5t143.5 -369.5q0 -221 -144.5 -376.5t-349.5 -155.5q-141 0 -305 79v-462h-84zM207 842l6 -647q-4 -49 86 -86t217 -41q166 4 286 134t120 310q0 178 -120 309t-286 131q-119 0 -208 -31.5t-101 -78.5z" />
<glyph unicode="&#xff;" horiz-adv-x="1095" d="M109 -399l10 88q2 -4 8 -7.5t8 -5.5h4q6 0 22.5 -1t24.5 -1q74 0 141.5 50.5t104.5 138.5l82 203l-395 970h92l346 -864l340 864h92l-393 -964l-90 -240l-4 -18q-47 -104 -134 -164t-186 -60q-32 1 -73 11zM371 1331.5q0 22.5 17.5 38.5t41.5 16q23 0 41 -17t18 -37.5 t-18 -38t-41 -17.5q-25 0 -42 16.5t-17 39zM645 1331.5q0 22.5 17.5 38.5t42.5 16q23 0 41 -17t18 -37.5t-18.5 -38t-40.5 -17.5q-25 0 -42.5 16.5t-17.5 39z" />
<glyph unicode="&#x152;" horiz-adv-x="2162" d="M59 707q0 297 188.5 506.5t454.5 209.5q178 0 326 -95t234 -259v346h817v-82h-731v-536h624v-86h-624v-625h731l2 -86h-817l-2 340q-47 -92 -113 -160q-182 -199 -447 -198q-262 0 -452.5 210t-190.5 515zM147 707q0 -266 161 -451.5t394 -185.5q223 0 382 166.5 t178 412.5v113q-18 242 -177 405q-152 168 -383 168t-393 -183t-162 -445z" />
<glyph unicode="&#x153;" horiz-adv-x="1802" d="M45 506q0 219 141.5 374.5t339.5 155.5q143 0 262 -88t175 -231q47 143 148 232t226 89q170 0 287 -149.5t117 -368.5v-49h-723q10 -170 107.5 -286.5t234.5 -118.5q111 0 266 75l35 -75q-100 -55 -246 -82h-2q-16 -2 -53 -2q-131 0 -238.5 88t-156.5 231 q-55 -143 -174 -232t-265 -89q-199 0 -340 154.5t-141 371.5zM131 506q0 -182 115.5 -311t279.5 -129q160 0 273.5 129t113.5 311q0 184 -113.5 314t-273.5 130q-164 0 -279.5 -130t-115.5 -314zM1018 555h641q-12 168 -104.5 281.5t-217.5 113.5q-123 0 -214 -114.5 t-105 -280.5z" />
<glyph unicode="&#x178;" horiz-adv-x="1394" d="M72 1415h116l504 -692l512 692h115l-580 -774l2 -641h-88l-2 641zM496 1542.5q0 22.5 17 38.5t42 16q23 0 41 -17t18 -37.5t-18 -38t-41 -17.5q-25 0 -42 16.5t-17 39zM770 1542.5q0 22.5 17.5 38.5t41.5 16q23 0 41.5 -17t18.5 -37.5t-18.5 -38t-41.5 -17.5 q-25 0 -42 16.5t-17 39z" />
<glyph unicode="&#x2c6;" horiz-adv-x="548" d="M63 1163l220 217l221 -219l-53 -51l-168 170l-170 -170z" />
<glyph unicode="&#x2dc;" horiz-adv-x="684" d="M66 1276q61 33 143 33q55 0 130 -30t128 -30q74 0 119 29l22 -61q-59 -33 -141 -33q-90 0 -152 39q-47 20 -106 20q-74 0 -119 -29z" />
<glyph unicode="&#x2000;" horiz-adv-x="907" />
<glyph unicode="&#x2001;" horiz-adv-x="1816" />
<glyph unicode="&#x2002;" horiz-adv-x="907" />
<glyph unicode="&#x2003;" horiz-adv-x="1816" />
<glyph unicode="&#x2004;" horiz-adv-x="604" />
<glyph unicode="&#x2005;" horiz-adv-x="452" />
<glyph unicode="&#x2006;" horiz-adv-x="301" />
<glyph unicode="&#x2007;" horiz-adv-x="301" />
<glyph unicode="&#x2008;" horiz-adv-x="225" />
<glyph unicode="&#x2009;" horiz-adv-x="362" />
<glyph unicode="&#x200a;" horiz-adv-x="100" />
<glyph unicode="&#x2010;" horiz-adv-x="862" d="M84 559v86h707v-86h-707z" />
<glyph unicode="&#x2011;" horiz-adv-x="862" d="M84 559v86h707v-86h-707z" />
<glyph unicode="&#x2012;" horiz-adv-x="862" d="M84 559v86h707v-86h-707z" />
<glyph unicode="&#x2013;" horiz-adv-x="851" d="M84 559v86h707v-86h-707z" />
<glyph unicode="&#x2014;" horiz-adv-x="1089" d="M84 559v86h940v-86h-940z" />
<glyph unicode="&#x2018;" horiz-adv-x="307" d="M70 1214l92 199l16 -8l-18 -152l53 -116l-88 -41z" />
<glyph unicode="&#x2019;" horiz-adv-x="325" d="M70 1139l65 137l-14 129l98 10l14 -129l-151 -160z" />
<glyph unicode="&#x201a;" horiz-adv-x="352" d="M78 -129l82 129l-2 131h98l2 -131l-170 -141z" />
<glyph unicode="&#x201c;" horiz-adv-x="446" d="M70 1286l14 129l98 -10l-14 -129l65 -137l-12 -13zM219 1286l14 129l99 -10l-15 -129l66 -137l-12 -13z" />
<glyph unicode="&#x201d;" horiz-adv-x="485" d="M70 1139l65 137l-14 129l98 10l14 -129l-151 -160zM219 1139l66 137l-15 129l99 10l14 -129l-152 -160z" />
<glyph unicode="&#x201e;" horiz-adv-x="473" d="M57 -125l78 131l-4 129h100v-129l-163 -143zM209 -127l78 131v129h96v-131l-166 -143z" />
<glyph unicode="&#x2022;" horiz-adv-x="428" d="M90 786q0 51 38 90t89 39q49 0 89 -38.5t40 -90.5q0 -47 -40 -84.5t-89 -37.5t-88 37.5t-39 84.5z" />
<glyph unicode="&#x2026;" horiz-adv-x="890" d="M86 131h131l2 -131h-131zM383 131h131l2 -131h-131zM680 131h131l2 -131h-131z" />
<glyph unicode="&#x202f;" horiz-adv-x="362" />
<glyph unicode="&#x2039;" horiz-adv-x="720" d="M96 508l498 504l63 -60l-440 -444l440 -434l-61 -64z" />
<glyph unicode="&#x203a;" horiz-adv-x="702" d="M96 74l441 434l-441 444l64 60l497 -504l-499 -498z" />
<glyph unicode="&#x205f;" horiz-adv-x="452" />
<glyph unicode="&#x20ac;" horiz-adv-x="1525" d="M82 535v88h205q0 12 -3 38.5t-3 38.5q0 29 10 117h-209v86h227q63 227 243.5 373.5t403.5 146.5q287 0 500 -227l-63 -63q-182 203 -437 202q-193 0 -346 -119.5t-213 -312.5h703v-86h-721q-10 -57 -10 -117q0 -12 2 -38.5t2 -38.5h727v-88h-707q47 -201 206 -333 t357 -132q256 0 437 209l63 -70q-213 -227 -500 -227q-238 0 -419 156.5t-236 396.5h-219z" />
<glyph unicode="&#x2122;" horiz-adv-x="854" d="M61 1339v60h308v-60h-119v-356h-66v356h-123zM408 983v416h53l114 -195q4 6 113 195h51v-416h-61v283q-68 -106 -88 -148h-33l-86 148v-283h-63z" />
<glyph unicode="&#xe000;" horiz-adv-x="1025" d="M0 1025h1025v-1025h-1025v1025z" />
<glyph unicode="&#xfb01;" horiz-adv-x="1034" d="M76 913v88h151q2 0 2 15l-2 39v24q8 141 94.5 242.5t204.5 101.5q66 0 99 -4l-25 -84q-18 4 -74 4q-90 -2 -152.5 -86t-62.5 -198v-54h269l2 -1001h-84l-2 913h-185l2 -913h-80l-2 913h-155z" />
<glyph unicode="&#xfb02;" horiz-adv-x="1003" d="M76 913v88h151q2 0 2 15l-2 39v24q8 143 94.5 242.5t204.5 101.5h11h88l2 -1423h-88l-2 913h-226l2 -913h-80l-2 913h-155zM311 1001h226v338h-11q-90 -2 -152.5 -86t-62.5 -198v-54z" />
<glyph unicode="&#xfb03;" horiz-adv-x="1705" d="M1460 1331.5q0 22.5 17.5 38.5t41.5 16q23 0 41.5 -17t18.5 -37.5t-18.5 -38t-41.5 -17.5q-25 0 -42 16.5t-17 39zM1476 1024h84l2 -1024h-84zM748 913v88h151q2 0 2 15l-2 39v24q8 141 94.5 242.5t204.5 101.5q66 0 99 -4l-25 -84q-18 4 -74 4q-90 -2 -152.5 -86 t-62.5 -198v-54h271v-88h-271l2 -913h-80q-2 604 -2 913h-155zM76 913v88h151q2 0 2 15l-2 39v24q8 141 94.5 242.5t204.5 101.5q66 0 99 -4l-25 -84q-18 4 -74 4q-90 -2 -152.5 -86t-62.5 -198v-54h271v-88h-271l2 -913h-80q-2 604 -2 913h-155z" />
<glyph unicode="&#xfb04;" horiz-adv-x="1675" d="M1476 1415h86l2 -1415h-86zM748 913v88h151q2 0 2 15l-2 39v24q8 141 94.5 242.5t204.5 101.5q66 0 99 -4l-25 -84q-18 4 -74 4q-90 -2 -152.5 -86t-62.5 -198v-54h271v-88h-271l2 -913h-80q-2 604 -2 913h-155zM76 913v88h151q2 0 2 15l-2 39v24q8 141 94.5 242.5 t204.5 101.5q66 0 99 -4l-25 -84q-18 4 -74 4q-90 -2 -152.5 -86t-62.5 -198v-54h271v-88h-271l2 -913h-80q-2 604 -2 913h-155z" />
<glyph horiz-adv-x="526" />
</font>
</defs>
</svg>
