<?xml version="1.0" standalone="no"?>
<!DOCTYPE svg PUBLIC "-//W3C//DTD SVG 1.1//EN" "http://www.w3.org/Graphics/SVG/1.1/DTD/svg11.dtd" >
<svg xmlns="http://www.w3.org/2000/svg">
<metadata>
This is a custom SVG webfont generated by Font Squirrel.
Copyright   : Llicia gratu  Free License La Tipomatika
Designer    : La Tipomatika Digital Type Foundry
Foundry     : La Tipomatika
</metadata>
<defs>
<font id="webfontaEWYraHX" horiz-adv-x="1220" >
<font-face units-per-em="2048" ascent="1638" descent="-410" />
<missing-glyph horiz-adv-x="526" />
<glyph unicode=" "  horiz-adv-x="526" />
<glyph unicode="&#x09;" horiz-adv-x="526" />
<glyph unicode="&#xa0;" horiz-adv-x="526" />
<glyph unicode="!" horiz-adv-x="360" d="M123 31q2 20 20.5 33.5t38.5 13.5q41 0 37 -47q-12 -49 -57 -49q-20 0 -31.5 14.5t-7.5 34.5zM172 203l256 1212h74l-256 -1212h-74z" />
<glyph unicode="&#x22;" horiz-adv-x="444" d="M338 1135l37 280h98l-12 -129l-113 -164zM492 1135l36 280h99l-13 -129l-112 -164z" />
<glyph unicode="#" horiz-adv-x="1462" d="M160 0l260 453h-258l94 90h217l168 293h-397l92 90h358l228 393h92l-226 -393h492l227 393h92l-225 -393h238l-92 -90h-199l-170 -293h381l-94 -90h-340l-258 -453h-95l261 453h-494l-258 -453h-94zM565 543h494l168 293h-492z" />
<glyph unicode="$" horiz-adv-x="954" d="M113 174l80 55q31 -68 99 -114.5t157 -46.5l124 594q-154 29 -231.5 135t-46.5 245q31 145 153.5 249t286.5 126l19 92h86l-19 -88q217 0 324 -157l-82 -56q-84 133 -258 133l-129 -606q154 -31 234.5 -137t52.5 -244q-31 -143 -158 -246.5t-289 -121.5l-27 -121h-86 l27 117q-8 2 -22 2q-104 10 -181 61t-114 129zM387 1051q-23 -106 34.5 -190.5t170.5 -110.5l125 585q-119 -23 -214.5 -102.5t-115.5 -181.5zM535 72q119 16 216 93t119 183q23 109 -37.5 195t-175.5 108z" />
<glyph unicode="&#x26;" horiz-adv-x="1222" d="M166 385q53 246 405 395l60 25l-29 43q-72 102 -89 165.5t-3 125.5q25 113 132.5 198.5t246.5 85.5q129 0 196.5 -78.5t44.5 -191.5q-37 -178 -323 -319l-51 -25l250 -422l41 57q68 92 102 174l96 -22q-86 -168 -182 -274l-12 -41v-7q27 -61 43 -86.5t59 -68.5l-23 -105 q-14 10 -27 24l-23 22q-9 9 -22 29l-19 27q-5 7 -22 34l-22 32l-22 37l-41 -37q-201 -186 -424 -182q-180 0 -277.5 113.5t-64.5 271.5zM279 395q-27 -121 41.5 -221t201.5 -100q92 -2 199.5 54t183.5 142l21 25l-271 463l-37 -21q-302 -158 -339 -342zM612 1157 q-18 -92 41 -180l78 -119l33 16q133 70 190.5 130.5t75.5 144.5q18 90 -27 151.5t-137 61.5q-86 0 -162 -59.5t-92 -145.5z" />
<glyph unicode="'" horiz-adv-x="247" d="M289 1139l94 137l12 129l101 10l-13 -129l-186 -160z" />
<glyph unicode="(" horiz-adv-x="532" d="M221 592q57 270 169 496.5t237 334.5l18 -100q-98 -96 -186 -294t-140 -437q-55 -268 -45.5 -475t78.5 -291l-67 -86q-86 106 -104.5 333.5t40.5 518.5z" />
<glyph unicode=")" horiz-adv-x="503" d="M82 -174q106 84 204.5 292t155.5 474q51 242 47 438.5t-61 292.5l59 100q78 -111 94.5 -333t-40.5 -498q-59 -283 -176 -514.5t-248 -337.5z" />
<glyph unicode="*" horiz-adv-x="964" d="M369 1106l18 84h248l-139 176l73 61l138 -176l53 250h86l-53 -250l215 176l47 -59l-213 -176h250l-19 -86h-250l140 -178l-72 -60l-141 176l-54 -249h-86l54 247l-213 -174l-50 60l213 178h-245z" />
<glyph unicode="+" horiz-adv-x="925" d="M233 559l17 86h309l68 309h86l-68 -309h311l-16 -86h-311l-68 -311h-86l68 311h-310z" />
<glyph unicode="," horiz-adv-x="354" d="M51 -129l109 129l26 131h99l-27 -131l-199 -141z" />
<glyph unicode="-" horiz-adv-x="862" d="M205 559l16 86h707l-17 -86h-706z" />
<glyph unicode="." horiz-adv-x="296" d="M88 0l27 131h131l-27 -131h-131z" />
<glyph unicode="/" horiz-adv-x="774" d="M92 0l817 1415h92l-815 -1415h-94z" />
<glyph unicode="0" horiz-adv-x="1200" d="M237.5 704.5q63.5 296.5 261 507.5t410.5 211q215 0 321.5 -209.5t43.5 -508.5q-66 -299 -260.5 -511t-409.5 -212q-213 0 -321.5 213t-45 509.5zM324 705q-57 -264 31.5 -450.5t267.5 -186.5q180 0 345 185t222 452q55 264 -32 448t-267 184q-178 0 -345 -185t-222 -447 z" />
<glyph unicode="1" horiz-adv-x="538" d="M330 1202l303 213h86l-299 -1415h-86l276 1305l-231 -162z" />
<glyph unicode="2" horiz-adv-x="972" d="M117 0l16 84l739 668q109 98 140 233q31 150 -52 251t-235 101q-143 0 -270 -100l-49 61q166 125 337 125q184 0 289 -129t66 -309q-37 -170 -185 -295l-665 -606h657l-16 -84h-772z" />
<glyph unicode="3" horiz-adv-x="882" d="M80 123l72 59q82 -121 247 -121q143 0 264 92.5t148 221.5q27 117 -47 205t-205 100h-190l18 86h191q137 8 247.5 90t135.5 195q25 121 -58.5 204.5t-224.5 83.5q-178 0 -303 -112l-47 61q154 135 366 135q180 0 285.5 -108.5t73.5 -263.5q-25 -106 -111 -195.5 t-203 -134.5q96 -49 139.5 -142.5t18.5 -203.5q-35 -166 -185.5 -282t-330.5 -116q-98 0 -177 40t-124 106z" />
<glyph unicode="4" horiz-adv-x="968" d="M186 520l19 86h4l639 809l65 -41l-608 -768h420l68 316h86l-68 -316h203l-19 -86h-202l-109 -520h-86l109 520h-521z" />
<glyph unicode="5" horiz-adv-x="1032" d="M188 201l72 59q31 -82 100.5 -128t163.5 -46q154 0 288 124t171 300q39 176 -43 298t-235 122q-104 0 -203 -57.5t-162 -151.5h-86l197 694h755l-18 -86h-670l-145 -459q158 143 350 144q190 0 290.5 -147.5t55.5 -356.5q-45 -211 -208 -360.5t-353 -149.5 q-109 0 -193 54.5t-127 146.5z" />
<glyph unicode="6" horiz-adv-x="1036" d="M203 391l2 6q10 92 61 328q41 193 96 334q63 154 204 258t296 108q231 0 330 -178l-98 -53q-33 68 -98.5 106.5t-147.5 38.5q-127 0 -245 -88t-169 -219q-53 -131 -98 -332q-2 -10 -5 -30.5t-5 -30.5q152 184 381 195q180 0 283.5 -117t68.5 -293q0 -2 -1 -8t-1 -10 q-39 -178 -189.5 -300t-328.5 -122q-170 0 -267.5 117.5t-68.5 289.5zM289 399q-29 -137 51 -235t219 -98t261 99t151 236q0 4 2 10.5t2 8.5q25 139 -54 234.5t-220.5 95.5t-262 -105t-149.5 -246z" />
<glyph unicode="7" horiz-adv-x="907" d="M92 0l899 1329h-573l18 86h717l-958 -1415h-103z" />
<glyph unicode="8" horiz-adv-x="940" d="M150 391q25 121 109.5 220.5t199.5 152.5q-74 45 -108 127t-13 178q33 145 161 249.5t277 104.5q154 0 240 -104.5t53 -249.5q-20 -98 -87 -179t-163 -126q96 -51 137 -150.5t15 -222.5q-35 -170 -181.5 -289.5t-318.5 -119.5q-168 0 -262 120.5t-59 288.5zM236 391 q-29 -131 46.5 -227t206.5 -96q135 0 251 96t145 227q29 135 -46 231.5t-212 96.5q-131 0 -246.5 -96.5t-144.5 -231.5zM424 1069q-23 -109 42.5 -187.5t178.5 -78.5q117 0 215 79t121 187q25 113 -41 190.5t-182 77.5q-115 0 -212 -77.5t-122 -190.5z" />
<glyph unicode="9" horiz-adv-x="1001" d="M156 154l98 67q76 -147 244 -147q135 0 250.5 84t171.5 215q55 150 92 323q8 45 14 70q-166 -186 -401 -186q-170 0 -269.5 117.5t-66.5 287.5q0 2 1 7t1 7q37 176 188.5 301t327.5 125t274.5 -119.5t69.5 -291.5l-2 -6q-12 -96 -68 -344q-37 -180 -90 -314 q-63 -160 -211.5 -262t-314.5 -102q-98 0 -181 46t-128 122zM371 989q-23 -135 56 -230t214 -95q145 0 268 99t154 243q29 133 -53 232t-219 99q-143 0 -266 -103.5t-154 -244.5z" />
<glyph unicode=":" horiz-adv-x="372" d="M125 0l27 131h131l-27 -131h-131zM313 893l29 131h131l-29 -131h-131z" />
<glyph unicode=";" horiz-adv-x="346" d="M29 -129l108 129l27 131h98l-26 -131l-199 -141zM313 893l29 131h131l-29 -131h-131z" />
<glyph unicode="&#x3c;" horiz-adv-x="675" d="M166 508l606 504l49 -60l-534 -444l348 -434l-74 -64z" />
<glyph unicode="=" horiz-adv-x="901" d="M229 410l19 90h686l-19 -90h-686zM313 807l21 90h686l-21 -90h-686z" />
<glyph unicode="&#x3e;" horiz-adv-x="688" d="M94 74l533 434l-346 444l77 60l390 -504l-605 -498z" />
<glyph unicode="?" horiz-adv-x="839" d="M338 657l16 84h193q121 2 221 88t127 207q27 127 -40 215t-185 88q-162 0 -281 -147l-47 59q68 78 159 125t185 47q156 0 242 -113.5t51 -273.5q-33 -154 -165 -266.5t-284 -112.5h-108l53 -657h-90zM381 -197q4 23 24.5 38.5t43.5 15.5q51 0 40 -54q-4 -25 -22 -42 t-43 -17q-23 0 -35 17t-8 42z" />
<glyph unicode="@" horiz-adv-x="1544" d="M242 668q68 326 313.5 540.5t564.5 214.5q256 0 404.5 -156.5t93.5 -418.5q-41 -195 -195.5 -367t-332.5 -192q-119 6 -138 61q-86 -68 -186 -67q-109 0 -168 77.5t-37 188.5q25 113 119 188.5t207 75.5h164l4 25l-6 -29q51 233 -45 233q-86 0 -146 -20l-12 -2l-2 90 l10 2q78 23 168 23h2q168 -6 115 -308l8 27q-39 -162 -70 -309q-2 -14 -12 -45t-12 -47.5t0 -36t20.5 -28.5t52.5 -9q47 0 133.5 60.5t145.5 144.5q33 45 65.5 128t45.5 138q41 195 -77 332t-347 137q-262 0 -474 -182.5t-272 -456.5q-57 -268 78 -419.5t432 -151.5 q176 0 322.5 61t232.5 160l4 4h129l-14 -19q-100 -133 -284.5 -223t-409.5 -90q-334 0 -498 173.5t-96 492.5zM635 549q-16 -78 27 -131t120 -53q76 0 142.5 54t81.5 130l38 182h-176q-80 0 -147.5 -51t-85.5 -131z" />
<glyph unicode="A" d="M66 0l821 1415h71l224 -1415h-90l-95 588h-497l-344 -588h-90zM547 674h436l-92 590z" />
<glyph unicode="B" horiz-adv-x="1048" d="M111 0l299 1415h86h366q154 -2 242 -105q66 -78 66 -177q0 -32 -7 -66q-20 -102 -93 -186t-177 -131q96 -45 139 -140q27 -60 28 -128q0 -39 -9 -81q-35 -162 -176.5 -278.5t-311.5 -118.5l-37 -4h-415zM213 86h330h37q133 6 245.5 98t139.5 217q7 32 7 62q0 83 -54 149 q-74 90 -205 99h-367zM365 797h366q123 4 223.5 80.5t122.5 189.5q6 26 6 51q0 73 -51 131q-68 78 -186 84h-37h-330z" />
<glyph unicode="C" horiz-adv-x="1208" d="M211 707q61 289 294.5 502.5t500.5 213.5q125 0 228 -52t169 -144l-72 -64l2 6q-125 168 -346 168q-227 0 -430 -184t-258 -446q-17 -83 -17 -159q0 -163 82 -291q120 -187 355 -187q209 0 411 166l46 -58q-229 -197 -476 -196q-256 0 -403 215q-104 152 -104 343 q0 80 18 167z" />
<glyph unicode="D" horiz-adv-x="1177" d="M78 0l299 1415h86h436q205 -2 305 -208q62 -128 62 -288q0 -98 -23 -208q-61 -291 -246.5 -497t-392.5 -210v-4h-526zM180 86h441l2 4q168 4 324.5 185.5t209.5 435.5q21 101 21 190q0 134 -48 244q-80 182 -249 184h-437z" />
<glyph unicode="E" horiz-adv-x="993" d="M92 0l299 1415h817l-16 -82h-731l-115 -536h625l-19 -86h-624l-133 -625h731l-17 -86h-817z" />
<glyph unicode="F" horiz-adv-x="997" d="M100 0l299 1415h818l-17 -80h-731l-115 -538h625l-18 -86h-625l-150 -711h-86z" />
<glyph unicode="G" horiz-adv-x="1236" d="M201 700q63 299 298.5 511t501.5 212q256 0 400 -196l-70 -60q-129 168 -348 168q-233 0 -436 -185t-260 -450q-17 -80 -17 -153q0 -166 86 -296q125 -187 357 -188q203 0 385 146l86 405h-391l18 82h477l-110 -516v-6q-229 -193 -482 -192q-176 0 -304 96t-180 262 q-29 93 -29 195q0 79 18 165z" />
<glyph unicode="H" horiz-adv-x="1142" d="M102 0l299 1415h86l-131 -618h781l131 618h86l-299 -1415h-86l149 711h-780l-150 -711h-86z" />
<glyph unicode="I" horiz-adv-x="282" d="M102 0l299 1415h86l-299 -1415h-86z" />
<glyph unicode="J" horiz-adv-x="624" d="M86 68l68 59q39 -59 98 -59q74 0 140.5 77.5t92.5 194.5l228 1075h88l-228 -1071q-31 -147 -132 -254.5t-208 -107.5q-92 0 -147 86z" />
<glyph unicode="K" horiz-adv-x="1193" d="M92 0l299 1415h86l-164 -770l824 770h116l-657 -614l514 -801h-111l-473 735l-239 -223l-109 -512h-86z" />
<glyph unicode="L" horiz-adv-x="927" d="M92 0l299 1415h86l-282 -1329h690l-17 -86h-776z" />
<glyph unicode="M" horiz-adv-x="1275" d="M72 0l299 1415h86l301 -790l626 790h89l-299 -1415h-89l265 1249l-592 -747h-53l-283 747l-264 -1249h-86z" />
<glyph unicode="N" horiz-adv-x="1099" d="M98 0l299 1415h84l469 -1243l264 1243h86l-299 -1415h-86l-469 1249l-264 -1249h-84z" />
<glyph unicode="O" horiz-adv-x="1413" d="M211 707q63 297 295.5 506.5t499.5 209.5q274 0 414 -208q97 -143 97 -330q0 -85 -20 -178q-68 -319 -309 -527q-225 -199 -487.5 -198.5t-408.5 209.5q-101 145 -101 336q0 86 20 180zM299 707q-18 -85 -18 -163q0 -163 83 -289q122 -185 355 -185q238 0 438.5 184 t257.5 453q18 83 18 157q0 175 -98 303q-117 168 -348 168t-432 -183t-256 -445z" />
<glyph unicode="P" horiz-adv-x="983" d="M111 0l299 1415h407q166 0 261 -102q72 -77 72 -178q0 -33 -7 -68q-33 -150 -171 -254t-304 -104h-322l-149 -709h-86zM365 795h321q129 0 236.5 78.5t132.5 193.5q5 25 5 49q0 78 -58 138q-75 79 -201 79h-6h-316z" />
<glyph unicode="Q" horiz-adv-x="1361" d="M238 754q59 283 276 476t459 193q244 0 380 -194q95 -135 95 -313q0 -77 -18 -162q-31 -139 -109 -264t-184 -218q-166 -150 -369 -178q-2 -16 -2 -31q0 -45 14 -77q18 -43 51 -43q43 0 72 47l47 -49q-74 -78 -137 -78q-61 0 -96 64q-30 55 -30 131q0 13 1 28 q-240 6 -375 200q-94 134 -94 308q1 76 19 160zM315 754q-16 -75 -16 -144q0 -150 78 -269q113 -173 323 -179q1 6 1 11q0 29 -18 51q-20 24 -55 24h-5l16 74h6q65 0 104 -42q36 -40 36 -101q0 -6 -1 -13q193 37 354.5 204t209.5 384q17 80 17 152q0 164 -91 284 q-117 160 -316 160q-211 0 -401.5 -174t-241.5 -422z" />
<glyph unicode="R" horiz-adv-x="970" d="M90 0l299 1415h406q168 0 263 -102q72 -77 72 -180q0 -33 -8 -68q-31 -147 -170 -250.5t-307 -103.5h-203l476 -711h-111l-477 711h-4l-150 -711h-86zM344 797h320q129 0 238.5 77.5t133.5 190.5q5 25 5 49q0 80 -58 141q-76 80 -205 80h-4h-315z" />
<glyph unicode="S" horiz-adv-x="993" d="M131 174l80 55q74 -162 289 -161q133 0 247.5 80.5t139.5 197.5q7 32 7 62q0 79 -50 143q-70 88 -199 104h-6q-172 16 -265 128q-69 83 -69 186q0 36 8 75q33 160 183.5 268.5t332.5 108.5q227 0 334 -157l-82 -56q-84 133 -268 133q-137 0 -259 -85t-148 -203 q-7 -31 -7 -60q0 -83 56 -150q76 -91 211 -104q166 -23 256 -132q67 -82 67 -182q0 -34 -8 -71q-33 -156 -179.5 -264t-324.5 -108q-121 0 -213 53t-133 139z" />
<glyph unicode="T" horiz-adv-x="1177" d="M371 1333l16 82h549h461l-17 -82h-460l-283 -1333h-86l283 1333h-463z" />
<glyph unicode="U" horiz-adv-x="1224" d="M164 354l225 1061h92l-225 -1061q-2 -16 -2 -30q0 -99 94 -171q109 -83 285 -83q170 0 311 83t174 201l225 1061h87l-226 -1061q-39 -154 -212 -263t-378 -109q-211 0 -342 109q-112 93 -111 219q0 21 3 44z" />
<glyph unicode="V" horiz-adv-x="1308" d="M389 1415h90l205 -1288l750 1288h90l-822 -1415h-90z" />
<glyph unicode="W" horiz-adv-x="1873" d="M395 1415h90l207 -1288l348 604l-106 684h90l88 -563l117 -725l747 1288h92l-819 -1415h-94l-96 604l-348 -604h-93z" />
<glyph unicode="X" horiz-adv-x="1107" d="M80 0l575 725l-258 690h97l237 -618l496 618h100l-563 -704l264 -711h-100l-242 639l-510 -639h-96z" />
<glyph unicode="Y" horiz-adv-x="1394" d="M373 1415h116l359 -692l657 692h115l-743 -774l-136 -641h-88l135 641z" />
<glyph unicode="Z" horiz-adv-x="1122" d="M72 0l1110 1329h-770l18 86h850h72l-1108 -1329h753l-16 -86h-850h-59z" />
<glyph unicode="[" horiz-adv-x="430" d="M231 684l19 86h41q39 0 70.5 26.5t39.5 65.5l99 461v4l2 6q14 37 54 59.5t85 22.5l-18 -88q-35 0 -35 -4l-105 -485q-14 -27 -43.5 -47.5t-58.5 -20.5l-19 -86q31 0 52.5 -17.5t23.5 -48.5l-112 -522q0 -10 32 -10l-16 -86q-41 0 -76 27.5t-28 68.5l106 496 q8 39 -12.5 65.5t-59.5 26.5h-41z" />
<glyph unicode="\" horiz-adv-x="759" d="M391 1415h92l219 -1415h-94z" />
<glyph unicode="]" horiz-adv-x="374" d="M59 0l17 86q27 0 43 10l112 522q27 66 95 66l22 86q-33 0 -51 19.5t-21 48.5l105 485q-6 4 -41 4l18 88q51 0 80 -22.5t27 -59.5l2 -6v-4l-98 -461q-8 -39 9 -65.5t54 -26.5h43l-18 -86h-43q-37 0 -66 -25.5t-37 -66.5l-106 -496q-8 -39 -54.5 -67.5t-91.5 -28.5z" />
<glyph unicode="^" horiz-adv-x="1128" d="M260 918l608 497l394 -500l-78 -61l-340 440l-539 -440z" />
<glyph unicode="_" horiz-adv-x="1050" d="M86 0l16 86h861l-17 -86h-860z" />
<glyph unicode="`" horiz-adv-x="417" d="M344 1311h135l96 -178h-47z" />
<glyph unicode="a" horiz-adv-x="831" d="M143 289q29 135 149 223t263 88h233l9 45q12 52 11 97q0 66 -25 118q-42 88 -138 90h-2q-133 0 -244 -30l-4 81q129 35 267 35h2q119 -2 185 -103q50 -76 50 -176q0 -34 -6 -71l-4 -20q-43 -176 -78 -347q-56 -250 -56 -304q0 -12 3 -15h-96l16 82q-125 -102 -270 -102 q-135 0 -213 91q-58 68 -58 155q-1 31 6 63zM231 289q-4 -22 -4 -43q0 -65 43 -114q57 -65 158 -64q102 0 188 64.5t105 156.5l49 227h-233q-109 0 -197.5 -63.5t-108.5 -163.5z" />
<glyph unicode="b" horiz-adv-x="1071" d="M106 0q6 8 21.5 56l28.5 91l10 46l260 1222h86l-96 -459q127 80 319 80q203 0 315 -155q78 -109 78 -249q0 -59 -14 -122q-45 -217 -221 -371.5t-383 -158.5q-193 10 -291 81l-12 -61h-101zM246 193q-1 -5 -1 -11q0 -43 74 -77q84 -38 209 -39q168 4 314.5 134t185.5 310 q12 53 12 102q0 115 -65 207q-92 131 -258 131q-119 0 -214 -31.5t-118 -78.5z" />
<glyph unicode="c" horiz-adv-x="978" d="M156 508q45 217 223 372.5t379 155.5q207 0 317 -159l-74 -64q-90 137 -262 137q-168 0 -312 -129t-185 -313q-12 -55 -12 -104q0 -117 64 -207q91 -129 259 -129q170 0 313 131l49 -60q-184 -158 -380 -157q-201 0 -313 155q-80 111 -79 252q0 57 13 119z" />
<glyph unicode="d" horiz-adv-x="1093" d="M215 516q45 215 222 366.5t380 153.5h4h-4q188 0 287 -80l96 459h86l-258 -1218l-27 -191h-100l12 60q-119 -70 -319 -80q-203 4 -313 157q-79 109 -79 252q0 58 13 121zM299 516q-12 -54 -12 -102q0 -116 65 -208q92 -130 260 -136h4q127 6 221.5 43t104.5 84l137 645 q-4 45 -82.5 76.5t-197.5 31.5q-172 -4 -317.5 -131t-182.5 -303z" />
<glyph unicode="e" horiz-adv-x="933" d="M160 471l8 39q47 219 199.5 373.5t320.5 154.5q170 0 255 -149q55 -96 55 -221q0 -69 -17 -148l-10 -49h-723q-7 -45 -7 -86q0 -115 54 -201q74 -117 209 -118q113 0 282 75l19 -75q-111 -55 -262 -82h-2q-16 -2 -54 -2q-170 0 -264 142q-71 107 -71 250q0 47 8 97z M266 555h641q6 41 6 80q0 115 -51 201q-68 115 -192 114q-123 0 -239 -114.5t-165 -280.5z" />
<glyph unicode="f" horiz-adv-x="671" d="M233 0l193 913h-156l19 88h151q2 0 6 15l7 39l6 24q37 141 144.5 242.5t225.5 101.5q66 0 99 -4l-43 -84q-16 4 -72 4q-92 -2 -172 -85t-104 -199l-13 -54h271l-19 -88h-270l-193 -913h-80z" />
<glyph unicode="g" horiz-adv-x="1128" d="M53 -82q20 90 94 166t179 117q-8 23 -8 49q0 22 6 47q16 72 67 111q-102 85 -101 206q0 33 7 68q31 145 172 249.5t311 104.5q68 0 150 -22h354l-102 -86h-129q68 -73 68 -172q0 -35 -9 -74q-31 -145 -171 -247.5t-310 -102.5q-37 0 -89.5 12t-74.5 12q-68 0 -78 -55 q-2 -11 -2 -20q0 -46 59 -45q8 0 20.5 1t16.5 1q16 4 49 4q172 0 272 -95q77 -73 77 -170q0 -28 -7 -59q-29 -135 -169 -231.5t-312 -96.5q-168 0 -268 98q-78 76 -78 173q0 27 6 57zM135 -82q-4 -20 -4 -39q0 -76 65 -134q81 -73 214 -73q139 0 250.5 73t134.5 173 q5 22 4 42q0 74 -64 131q-82 73 -219 73q-131 0 -244.5 -74t-136.5 -172zM381 682q-5 -25 -5 -48q0 -80 60 -141q78 -79 211 -79q137 0 250 78.5t135 189.5q6 28 6 53q0 81 -59 141q-78 79 -215 78q-135 0 -246.5 -78.5t-136.5 -193.5z" />
<glyph unicode="h" horiz-adv-x="931" d="M96 0l301 1419h86l-114 -540q137 160 317 159q143 0 219 -108q55 -79 55 -182q0 -39 -8 -82l-135 -660h-86l141 660q5 30 6 58q0 84 -47 146q-61 84 -174 84q-100 0 -194 -74.5t-133 -183.5l-148 -696h-86z" />
<glyph unicode="i" horiz-adv-x="362" d="M135 0l217 1024h84l-217 -1024h-84zM401 1331q4 23 24.5 39t45.5 16q23 0 38 -17q12 -14 12 -29q0 -25 -27 -47q-23 -17 -45 -17q-25 0 -38 16q-10 13 -11 29q0 5 1 10z" />
<glyph unicode="j" horiz-adv-x="724" d="M23 -397l26 80q16 0 45 -3.5t43 -3.5l6 7q88 0 166 80.5t101 193.5l227 1069h86l-231 -1089q-39 -139 -144.5 -238.5t-224.5 -104.5h-4q-20 0 -55 4.5t-41 4.5zM684 1321q10 55 68 55q20 0 33 -15q10 -12 11 -29q0 -5 -1 -11q-6 -23 -25.5 -39t-40.5 -16q-27 0 -39 16 q-8 11 -8 25q0 6 2 14z" />
<glyph unicode="k" horiz-adv-x="901" d="M117 0q14 14 28 92l281 1323h86l-156 -731l463 328h131l-366 -258l270 -754h-100l-250 692l-170 -121l-121 -571h-96z" />
<glyph unicode="l" horiz-adv-x="331" d="M135 0l299 1415h86l-299 -1415h-86z" />
<glyph unicode="m" horiz-adv-x="1513" d="M86 0l195 924q14 66 13 89q0 8 -1 11h96l-20 -96l-13 -54q139 160 316 160q104 0 177 -63.5t93 -163.5q63 115 164.5 173t198.5 58q143 0 219 -107q55 -78 55 -183q0 -40 -8 -82l-137 -662h-86l141 662q6 31 6 60q0 81 -46 142q-62 84 -171 84q-102 0 -196.5 -74.5 t-131.5 -181.5l-147 -692h-86l139 658q6 32 6 62q0 81 -45 141q-61 83 -174 83q-100 0 -193.5 -73.5t-132.5 -182.5l-145 -692h-86z" />
<glyph unicode="n" horiz-adv-x="886" d="M82 0l197 930q12 49 11 70q0 12 -3 16h96l-18 -82l-11 -55q135 162 318 161q143 0 220 -108q56 -79 56 -184q0 -39 -8 -82l-137 -666h-86l141 666q5 30 5 58q0 84 -46 146q-61 84 -172 84q-102 0 -196.5 -73.5t-133.5 -184.5l-147 -696h-86z" />
<glyph unicode="o" horiz-adv-x="1050" d="M154 506q45 219 220 374.5t374 155.5q197 0 303 -155q74 -108 73 -247q0 -61 -14 -128q-47 -217 -219 -371.5t-369 -154.5q-199 0 -307 154q-76 108 -76 246q1 60 15 126zM240 506q-12 -56 -12 -107q0 -115 61 -204q88 -129 252 -129q160 0 301 129t180 311q12 57 12 109 q0 115 -59 205q-86 130 -246 130q-164 0 -306 -130t-183 -314z" />
<glyph unicode="p" horiz-adv-x="1036" d="M0 -399l262 1235q0 4 1 10l4 23l6 35q3 17 5.5 38t4.5 36t2 27.5t-2 16.5h102l-14 -61q145 82 325 81q205 -4 316 -156q79 -108 78 -250q0 -57 -13 -120q-47 -221 -224 -376.5t-382 -155.5q-188 0 -289 79l-98 -462h-84zM205 178q2 -43 84 -74.5t200 -35.5 q170 4 316.5 134t185.5 314q12 54 12 104q0 117 -65 206q-92 128 -260 128q-127 0 -225.5 -34.5t-108.5 -83.5z" />
<glyph unicode="q" horiz-adv-x="1050" d="M190 528q45 209 216.5 358.5t365.5 149.5q188 0 283 -73l12 49h82l-301 -1411h-82l106 499q-131 -80 -315 -80h6h-6q-195 4 -303 153q-77 105 -77 239q0 55 13 116zM272 528q-11 -52 -10 -99q0 -113 62 -200q88 -123 249 -127q117 0 209 32t113 77l133 625q1 6 1 11 q0 42 -68 73q-78 35 -199 34h-6q-162 0 -303.5 -125t-180.5 -301z" />
<glyph unicode="r" horiz-adv-x="571" d="M94 0l197 926q12 70 12 91q0 8 -2 9h96l-32 -152q139 162 317 162q33 0 47 -6l-37 -84q-14 4 -39 4q-102 0 -194 -73.5t-133 -184.5l-146 -692h-86z" />
<glyph unicode="s" horiz-adv-x="854" d="M133 117l76 51q78 -100 235 -100q106 0 190.5 52t102.5 134q4 17 4 33q0 58 -46 109q-58 65 -163 81q-135 20 -209 107q-57 66 -58 144q0 24 5 48q25 115 140.5 186.5t257.5 71.5q92 0 169.5 -34.5t123.5 -92.5l-82 -51q-74 92 -238 92q-106 0 -187 -49t-96 -127 q-4 -16 -3 -31q0 -56 46 -105q59 -62 164 -79q135 -20 208 -107q56 -66 56 -146q0 -24 -6 -50q-25 -119 -138.5 -194.5t-252.5 -75.5q-96 0 -179 36t-120 97z" />
<glyph unicode="t" horiz-adv-x="696" d="M262 0l195 922h-156l18 88h152l86 405h86l-86 -405h277l-19 -88h-276l-195 -922h-82z" />
<glyph unicode="u" horiz-adv-x="921" d="M176 369l137 651h84l-137 -651l2 -11q-6 -31 -6 -60q0 -81 46 -143q62 -85 173 -85q102 0 195.5 75.5t128.5 182.5l147 696h86l-196 -926q-13 -62 -13 -85q0 -10 2 -13h-96l19 94l10 49q-61 -74 -145.5 -117.5t-170.5 -43.5q-141 0 -217 109q-54 78 -54 180q0 41 9 87z " />
<glyph unicode="v" horiz-adv-x="1024" d="M268 1024h92l175 -905l557 905h98l-635 -1024h-92z" />
<glyph unicode="w" horiz-adv-x="1443" d="M258 1024h92l174 -905l250 405l-94 500h98l168 -905l557 905h99l-635 -1024l-93 6l-73 400l-256 -406l-92 6z" />
<glyph unicode="x" horiz-adv-x="909" d="M68 0l436 530l-209 494h108l172 -422l359 422h106l-426 -510l209 -514h-102l-186 442l-365 -442h-102z" />
<glyph unicode="y" horiz-adv-x="1095" d="M25 -399l28 88q2 -4 7.5 -6t7.5 -7h4q6 0 22.5 -1t24.5 -1q74 0 152.5 50.5t131.5 138.5l125 203l-188 970h92l162 -864l524 864h92l-598 -964l-141 -240l-8 -18q-72 -104 -170 -164t-197 -60q-34 1 -71 11z" />
<glyph unicode="z" horiz-adv-x="925" d="M94 0l19 88l819 848h-633l18 88h746l-19 -88l-819 -848h639l-18 -88h-752z" />
<glyph unicode="{" horiz-adv-x="456" d="M231 684l19 86h41q39 0 70.5 26.5t39.5 65.5l99 461v4l2 6q14 37 54 59.5t85 22.5l-18 -88q-35 0 -35 -4l-105 -485q-14 -27 -43.5 -47.5t-58.5 -20.5l-19 -86q31 0 52.5 -17.5t23.5 -48.5l-112 -522q0 -10 32 -10l-16 -86q-41 0 -76 27.5t-28 68.5l106 496 q8 39 -12.5 65.5t-59.5 26.5h-41z" />
<glyph unicode="|" horiz-adv-x="268" d="M117 2l311 1466h53l-311 -1466h-53z" />
<glyph unicode="}" horiz-adv-x="385" d="M59 0l17 86q27 0 43 10l112 522q27 66 95 66l22 86q-33 0 -51 19.5t-21 48.5l105 485q-6 4 -41 4l18 88q51 0 80 -22.5t27 -59.5l2 -6v-4l-98 -461q-8 -39 9 -65.5t54 -26.5h43l-18 -86h-43q-37 0 -66 -25.5t-37 -66.5l-106 -496q-8 -39 -54.5 -67.5t-91.5 -28.5z" />
<glyph unicode="~" horiz-adv-x="710" d="M207 655q84 51 199 52q41 0 99 -20.5t97 -20.5q104 0 168 45l16 -62q-86 -53 -194 -53q-74 0 -121 29q-33 12 -78 12q-102 0 -166 -45z" />
<glyph unicode="&#xa1;" horiz-adv-x="327" d="M129 0l254 1204h74l-254 -1204h-74zM410 1374q12 49 57 49q20 0 31.5 -14t7.5 -34.5t-21.5 -34t-38.5 -13.5q-44 0 -36 47z" />
<glyph unicode="&#xa2;" horiz-adv-x="978" d="M156 508q45 205 205.5 355.5t351.5 168.5l28 139h97l-29 -139q170 -18 266 -155l-74 -64q-74 115 -210 133l-187 -876q139 18 262 129l49 -60q-162 -135 -329 -153l-29 -140h-96l28 140q-182 16 -279 167.5t-54 354.5zM242 508q-35 -168 40.5 -294t225.5 -144l186 876 q-158 -18 -286.5 -143t-165.5 -295z" />
<glyph unicode="&#xa3;" horiz-adv-x="1138" d="M182 616l19 86h245l152 713h86l-152 -713h375l-18 -86h-375l-113 -530h691l-17 -86h-776l129 616h-246z" />
<glyph unicode="&#xa5;" horiz-adv-x="1394" d="M373 1415h116l359 -692l657 692h115l-743 -774l-17 -80h299l-20 -90h-299l-17 -78h299l-18 -90h-299l-64 -303h-88l64 303h-299l18 90h299l17 78h-299l20 90h299l16 80z" />
<glyph unicode="&#xa6;" horiz-adv-x="268" d="M117 2l149 703h53l-149 -703h-53zM295 840l133 628h53l-133 -628h-53z" />
<glyph unicode="&#xa7;" horiz-adv-x="729" d="M115 31l51 71q74 -37 149 -36q86 0 154 44t86 121q-59 -23 -131 -22q-102 0 -184 47l53 76q74 -39 153 -39q51 0 107 20q-23 102 -131 160q-96 49 -143.5 138t-26.5 180q23 109 121 172q0 25 6 53q23 109 117 172t213 63q100 0 190 -45l-55 -82q-70 41 -158 41 q-80 0 -143.5 -41t-77.5 -110q0 -2 -1 -4t-1 -4q55 18 119 18q94 0 190 -45l-53 -82q-74 41 -160 41q-51 0 -92 -14q37 -100 135 -152q94 -51 139 -137t25 -178q-20 -100 -123 -178q0 -18 -4 -48q-25 -113 -124 -181t-214 -68q-100 0 -186 49zM338 782q-14 -63 22.5 -128.5 t114.5 -106.5q119 -61 156 -178q6 6 18 22q25 35 31 70q14 68 -22.5 135.5t-112.5 105.5q-115 55 -156 172q-41 -35 -51 -92z" />
<glyph unicode="&#xa8;" horiz-adv-x="538" d="M362.5 1331.5q4.5 22.5 25 38.5t44.5 16q23 0 38 -17t11 -37.5t-26.5 -38t-44.5 -17.5q-25 0 -38.5 16.5t-9 39zM637 1331.5q4 22.5 24.5 38.5t45.5 16q23 0 38 -17t11 -37.5t-26.5 -38t-45.5 -17.5q-25 0 -38 16.5t-9 39z" />
<glyph unicode="&#xaa;" horiz-adv-x="366" d="M215 768q10 49 55 82t101 33h71l2 12q8 35 -5 62.5t-40 27.5q-57 0 -96 -12l2 51q47 12 105 12q47 0 70.5 -40t13.5 -101l-27 -115q-20 -102 -2 -125h-70l2 13q-35 -20 -80 -21q-53 0 -82.5 35t-19.5 86zM266 768q-4 -27 13.5 -47.5t48.5 -20.5q29 0 57.5 20.5t32.5 47.5 l14 66h-76q-31 0 -58.5 -20.5t-31.5 -45.5z" />
<glyph unicode="&#xab;" horiz-adv-x="1089" d="M182 569l637 457l43 -65l-561 -402l295 -473l-78 -57zM530 569l637 457l43 -65l-561 -402l295 -473l-78 -57z" />
<glyph unicode="&#xac;" horiz-adv-x="1355" d="M236 707l18 86h1190l-98 -459h-86l79 373h-1103z" />
<glyph unicode="&#xad;" horiz-adv-x="862" d="M205 559l16 86h707l-17 -86h-706z" />
<glyph unicode="&#xb0;" horiz-adv-x="512" d="M313 1221q18 88 89 145t161 57q80 0 125 -58t27 -144q-16 -80 -86 -137.5t-150 -57.5q-88 0 -135 57.5t-31 137.5zM371 1221q-10 -53 26.5 -97.5t94.5 -44.5q49 0 101 45t62 97q12 57 -20.5 104t-81.5 47q-57 0 -113.5 -46t-68.5 -105z" />
<glyph unicode="&#xb1;" horiz-adv-x="925" d="M178 315l19 86h706l-18 -86h-707zM313 942l19 86h309l66 309h86l-66 -309h311l-18 -86h-311l-66 -311h-86l66 311h-310z" />
<glyph unicode="&#xb2;" horiz-adv-x="573" d="M207 649l12 62l393 354q61 55 76 121q14 70 -30 122t-113 52q-74 0 -152 -64l-39 52q102 76 202.5 75.5t157 -70t36.5 -167.5q-20 -88 -101 -168l-338 -307h336l-12 -62h-428z" />
<glyph unicode="&#xb3;" horiz-adv-x="542" d="M193 725l47 41h16q43 -66 125 -66q63 0 124.5 45.5t76.5 106.5q12 59 -25 104t-96 52h-111l15 63h110q59 4 116.5 47t70.5 96q10 53 -33 96.5t-107 43.5q-88 0 -164 -68l-36 49q92 80 213 80q96 0 153 -58.5t41 -142.5q-29 -125 -154 -176q94 -76 70 -186 q-18 -88 -99 -150.5t-177 -62.5q-121 0 -176 86z" />
<glyph unicode="&#xb4;" horiz-adv-x="428" d="M330 1133l174 178h135l-262 -178h-47z" />
<glyph unicode="&#xb6;" horiz-adv-x="782" d="M285 1079q29 139 147.5 237.5t257.5 98.5h160l-299 -1415h-160l156 741q-139 0 -216 99.5t-46 238.5zM369 1087q-23 -104 27 -178.5t145 -74.5l108 505q-94 0 -175.5 -73t-104.5 -179zM600 4l299 1409h82l-299 -1409h-82z" />
<glyph unicode="&#xb7;" horiz-adv-x="460" d="M264 643q10 39 49 70.5t82 31.5t71 -31.5t17 -70.5q-8 -39 -48 -69.5t-83 -30.5t-69.5 30.5t-18.5 69.5z" />
<glyph unicode="&#xb9;" horiz-adv-x="538" d="M330 1202l303 213h86l-129 -614h-86l106 504l-231 -162z" />
<glyph unicode="&#xba;" horiz-adv-x="475" d="M231 831q18 88 84 146.5t146 58.5q74 0 112.5 -58t20.5 -147q-16 -80 -80.5 -137t-136.5 -57q-80 0 -121 57t-25 137zM283 831q-10 -53 21.5 -97t82.5 -44q45 0 94 45t60 96q12 59 -16.5 106.5t-73.5 47.5q-53 0 -104.5 -47.5t-63.5 -106.5z" />
<glyph unicode="&#xbb;" horiz-adv-x="1073" d="M158 86l499 473l-393 402l72 65l444 -457l-569 -540zM506 86l500 473l-394 402l72 65l444 -457l-569 -540z" />
<glyph unicode="&#xbc;" horiz-adv-x="782" d="M268 930l152 106h43l-127 -600h-43l115 545l-115 -80zM379 260l10 43l322 404l32 -21l-305 -383h211l33 158h43l-33 -158h101l-11 -43h-100l-53 -260h-43l53 260h-260z" />
<glyph unicode="&#xbd;" horiz-adv-x="727" d="M244 932l151 106h43l-127 -602h-43l117 547l-117 -80zM281 0l8 41l368 334q55 49 72 117q14 76 -26.5 126t-116.5 50q-74 0 -135 -50l-25 31q82 61 168 62q92 0 144.5 -64.5t33.5 -154.5q-18 -80 -94 -148l-332 -303h330l-8 -41h-387z" />
<glyph unicode="&#xbe;" horiz-adv-x="937" d="M150 389l36 29q39 -59 123 -60q72 0 132.5 45.5t74.5 110.5q18 82 -50.5 126t-170.5 28l8 43h94q70 2 125.5 44t67.5 97q12 61 -29 103t-112 42q-88 0 -152 -57l-25 31q80 68 185 67q90 0 142 -54t36 -132q-12 -53 -55 -97t-101 -67q49 -25 70.5 -72t9.5 -102 q-18 -84 -94 -141.5t-166 -57.5q-100 0 -149 74zM537 264l8 43l321 404l33 -21l-303 -383h209l35 158h43l-35 -158h102l-8 -43h-102l-56 -260h-43l56 260h-260z" />
<glyph unicode="&#xbf;" horiz-adv-x="884" d="M176 367q33 156 166 271.5t283 115.5h114l-53 661h88l53 -661l-18 -88h-203q-119 -4 -220 -91.5t-126 -207.5q-27 -121 41 -210t188 -89q160 0 283 147l47 -63q-152 -172 -350 -172q-154 0 -241 114.5t-52 272.5zM666 1610q4 27 23.5 43t45.5 16q23 0 34 -16.5t7 -42.5 q-6 -25 -24.5 -41.5t-40.5 -16.5q-27 0 -39 16.5t-6 41.5z" />
<glyph unicode="&#xc0;" d="M66 0l821 1415h71l224 -1415h-90l-95 588h-497l-344 -588h-90zM547 674h436l-92 590zM754 1702h135l96 -178h-47z" />
<glyph unicode="&#xc1;" d="M66 0l821 1415h71l224 -1415h-90l-95 588h-497l-344 -588h-90zM547 674h436l-92 590zM918 1524l174 178h135l-262 -178h-47z" />
<glyph unicode="&#xc2;" d="M66 0l821 1415h71l224 -1415h-90l-95 588h-497l-344 -588h-90zM547 674h436l-92 590z" />
<glyph unicode="&#xc3;" d="M66 0l821 1415h71l224 -1415h-90l-95 588h-497l-344 -588h-90zM547 674h436l-92 590zM709 1638q88 49 186 50q39 0 92 -18.5t88 -18.5q100 0 160 41l16 -58q-82 -49 -186 -49q-66 0 -109 25q-35 12 -75 12q-92 0 -154 -41z" />
<glyph unicode="&#xc4;" d="M66 0l821 1415h71l224 -1415h-90l-95 588h-497l-344 -588h-90zM547 674h436l-92 590zM745.5 1562.5q4.5 22.5 25 39t44.5 16.5q23 0 38 -17.5t11 -38t-26.5 -38t-44.5 -17.5q-25 0 -38.5 16.5t-9 39zM1020 1562.5q4 22.5 24.5 39t45.5 16.5q23 0 38 -17.5t11 -38 t-26.5 -38t-45.5 -17.5q-25 0 -38 16.5t-9 39z" />
<glyph unicode="&#xc5;" d="M766 1606q18 88 89 145t161 57q80 0 125 -58t27 -144q-16 -80 -86 -137.5t-150 -57.5q-88 0 -135 57.5t-31 137.5zM824 1606q-10 -53 26.5 -97.5t94.5 -44.5q49 0 101 45t62 97q12 57 -20.5 104t-81.5 47q-57 0 -113.5 -46t-68.5 -105zM66 0l821 1415h71l224 -1415h-90 l-95 588h-497l-344 -588h-90zM547 674h436l-92 590z" />
<glyph unicode="&#xc6;" horiz-adv-x="2213" d="M66 0l821 1415h538h783l-17 -82h-731l-114 -536h624l-18 -86h-625l-133 -625h731l-16 -86h-817l125 588h-717l-344 -588h-90zM547 674h686l160 659h-469z" />
<glyph unicode="&#xc7;" horiz-adv-x="1298" d="M258 700q63 303 296.5 513t502.5 210q256 0 397 -194v-2l2 -2l-72 -58l-2 2q-125 172 -342 172q-233 0 -438 -189t-260 -452q-55 -258 69 -447.5t357 -189.5q213 0 412 168l49 -57q-223 -193 -500 -192l-29 -48q25 0 59 -34.5t23 -79.5q-14 -66 -127 -121l-55 51 q27 0 67 18.5t48 55.5q8 33 -24 48t-66 15h-17l25 105q-215 49 -322.5 246.5t-52.5 461.5z" />
<glyph unicode="&#xc8;" horiz-adv-x="993" d="M92 0l299 1415h817l-16 -82h-731l-115 -536h625l-19 -86h-624l-133 -625h731l-17 -86h-817zM612 1702h136l96 -178h-47z" />
<glyph unicode="&#xc9;" horiz-adv-x="993" d="M92 0l299 1415h817l-16 -82h-731l-115 -536h625l-19 -86h-624l-133 -625h731l-17 -86h-817zM748 1524l174 178h135l-262 -178h-47z" />
<glyph unicode="&#xca;" horiz-adv-x="993" d="M618 1599l267 217l174 -219l-64 -51l-133 170l-205 -170zM92 0l299 1415h817l-16 -82h-731l-115 -536h625l-19 -86h-624l-133 -625h731l-17 -86h-817z" />
<glyph unicode="&#xcb;" horiz-adv-x="993" d="M92 0l299 1415h817l-16 -82h-731l-115 -536h625l-19 -86h-624l-133 -625h731l-17 -86h-817zM631 1564.5q4 22.5 24.5 39t44.5 16.5q23 0 38.5 -17.5t11 -38t-27 -38t-44.5 -17.5q-25 0 -38 16.5t-9 39zM905 1564.5q4 22.5 24.5 39t45.5 16.5q23 0 38 -17.5t11 -38 t-26.5 -38t-45.5 -17.5q-25 0 -38 16.5t-9 39z" />
<glyph unicode="&#xcc;" horiz-adv-x="268" d="M119 0l299 1415h86l-299 -1415h-86zM311 1702h135l97 -178h-47z" />
<glyph unicode="&#xcd;" horiz-adv-x="315" d="M102 0l299 1415h86l-299 -1415h-86zM449 1524l174 178h135l-262 -178h-47z" />
<glyph unicode="&#xce;" horiz-adv-x="282" d="M102 0l299 1415h86l-299 -1415h-86z" />
<glyph unicode="&#xcf;" horiz-adv-x="282" d="M102 0l299 1415h86l-299 -1415h-86zM278.5 1562.5q4.5 22.5 25 39t44.5 16.5q23 0 38 -17.5t11 -38t-26.5 -38t-44.5 -17.5q-25 0 -38.5 16.5t-9 39zM553 1562.5q4 22.5 24.5 39t45.5 16.5q23 0 38 -17.5t11 -38t-26.5 -38t-45.5 -17.5q-25 0 -38 16.5t-9 39z" />
<glyph unicode="&#xd0;" horiz-adv-x="1337" d="M209 561l18 86h140l161 768h523q205 -2 305 -208t38.5 -496.5t-246.5 -496.5t-392 -210v-4h-527l119 561h-139zM332 86h440l2 4q168 4 324.5 185.5t210.5 435.5q53 252 -27 434t-250 184h-436l-143 -682h356l-18 -86h-357z" />
<glyph unicode="&#xd1;" horiz-adv-x="1099" d="M98 0l299 1415h84l469 -1243l264 1243h86l-299 -1415h-86l-469 1249l-264 -1249h-84zM616 1599q70 33 150 33q55 0 123.5 -29.5t122.5 -29.5q74 0 125 29l10 -62q-66 -33 -150 -33q-88 0 -143 39q-41 20 -100 21q-78 0 -125 -29z" />
<glyph unicode="&#xd2;" horiz-adv-x="1413" d="M211 707q63 297 295.5 506.5t499.5 209.5q274 0 414.5 -207.5t76.5 -508.5q-68 -319 -309 -527q-225 -199 -487.5 -198.5t-409 210.5t-80.5 515zM299 707q-57 -266 64.5 -451.5t355.5 -185.5q238 0 438.5 184t257.5 453q59 279 -80 460q-117 168 -348 168t-432 -183 t-256 -445zM799 1702h135l96 -178h-47z" />
<glyph unicode="&#xd3;" horiz-adv-x="1413" d="M211 707q63 297 295.5 506.5t499.5 209.5q274 0 414.5 -207.5t76.5 -508.5q-68 -319 -309 -527q-225 -199 -487.5 -198.5t-409 210.5t-80.5 515zM299 707q-57 -266 64.5 -451.5t355.5 -185.5q238 0 438.5 184t257.5 453q59 279 -80 460q-117 168 -348 168t-432 -183 t-256 -445zM1030 1524l174 178h135l-262 -178h-47z" />
<glyph unicode="&#xd4;" horiz-adv-x="1413" d="M823 1599l267 217l174 -219l-64 -51l-133 170l-205 -170zM211 707q63 297 295.5 506.5t499.5 209.5q274 0 414 -208q97 -143 97 -330q0 -85 -20 -178q-68 -319 -309 -527q-225 -199 -487.5 -198.5t-408.5 209.5q-101 145 -101 336q0 86 20 180zM299 707q-18 -85 -18 -163 q0 -163 83 -289q122 -185 355 -185q238 0 438.5 184t257.5 453q18 83 18 157q0 175 -98 303q-117 168 -348 168t-432 -183t-256 -445z" />
<glyph unicode="&#xd5;" horiz-adv-x="1413" d="M211 707q63 297 295.5 506.5t499.5 209.5q274 0 414.5 -207.5t76.5 -508.5q-68 -319 -309 -527q-225 -199 -487.5 -198.5t-409 210.5t-80.5 515zM299 707q-57 -266 64.5 -451.5t355.5 -185.5q238 0 438.5 184t257.5 453q59 279 -80 460q-117 168 -348 168t-432 -183 t-256 -445zM772 1602q70 33 150 32q55 0 123.5 -29.5t121.5 -29.5q74 0 125 29l11 -62q-66 -33 -150 -33q-88 0 -143 39q-41 20 -101 21q-78 0 -125 -29z" />
<glyph unicode="&#xd6;" horiz-adv-x="1413" d="M211 707q63 297 295.5 506.5t499.5 209.5q274 0 414.5 -207.5t76.5 -508.5q-68 -319 -309 -527q-225 -199 -487.5 -198.5t-409 210.5t-80.5 515zM299 707q-57 -266 64.5 -451.5t355.5 -185.5q238 0 438.5 184t257.5 453q59 279 -80 460q-117 168 -348 168t-432 -183 t-256 -445zM842 1564.5q4 22.5 24.5 39t44.5 16.5q23 0 38.5 -17.5t11 -38t-27 -38t-44.5 -17.5q-25 0 -38 16.5t-9 39zM1116 1564.5q4 22.5 24.5 39t45.5 16.5q23 0 38 -17.5t11 -38t-26.5 -38t-45.5 -17.5q-25 0 -38 16.5t-9 39z" />
<glyph unicode="&#xd7;" horiz-adv-x="751" d="M172 424l266 221l-170 217l72 62l174 -219l264 219l49 -60l-266 -219l172 -221l-71 -59l-175 219l-266 -219z" />
<glyph unicode="&#xd8;" horiz-adv-x="1413" d="M211 707q63 297 295.5 506.5t499.5 209.5q104 0 198 -34l15 26h92l-35 -61q147 -94 206.5 -264t14.5 -383q-68 -319 -309 -527q-225 -199 -488 -198q-100 0 -196 36l-8 -18h-95l31 55q-139 86 -202.5 262.5t-18.5 389.5zM299 707q-39 -184 11 -338t169 -234l676 1170 q-78 31 -168 30q-231 0 -432 -183t-256 -445zM551 100q76 -31 168 -30q238 0 438.5 184t257.5 453q59 279 -80 460q-49 66 -108 103z" />
<glyph unicode="&#xd9;" horiz-adv-x="1224" d="M164 354l225 1061h92l-225 -1061q-16 -119 92.5 -201.5t284.5 -82.5q170 0 311 83t174 201l225 1061h87l-226 -1061q-39 -154 -212 -263t-378 -109q-211 0 -342 109t-108 263zM741 1702h136l96 -178h-47z" />
<glyph unicode="&#xda;" horiz-adv-x="1224" d="M164 354l225 1061h92l-225 -1061q-16 -119 92.5 -201.5t284.5 -82.5q170 0 311 83t174 201l225 1061h87l-226 -1061q-39 -154 -212 -263t-378 -109q-211 0 -342 109t-108 263zM909 1524l174 178h136l-263 -178h-47z" />
<glyph unicode="&#xdb;" horiz-adv-x="1224" d="M729 1599l267 217l174 -219l-64 -51l-133 170l-205 -170zM164 354l225 1061h92l-225 -1061q-2 -16 -2 -30q0 -99 94 -171q109 -83 285 -83q170 0 311 83t174 201l225 1061h87l-226 -1061q-39 -154 -212 -263t-378 -109q-211 0 -342 109q-112 93 -111 219q0 21 3 44z" />
<glyph unicode="&#xdc;" horiz-adv-x="1224" d="M164 354l225 1061h92l-225 -1061q-16 -119 92.5 -201.5t284.5 -82.5q170 0 311 83t174 201l225 1061h87l-226 -1061q-39 -154 -212 -263t-378 -109q-211 0 -342 109t-108 263zM747.5 1562.5q4.5 22.5 25 39t44.5 16.5q23 0 38 -17.5t11 -38t-26.5 -38t-44.5 -17.5 q-25 0 -38.5 16.5t-9 39zM1022 1562.5q4 22.5 24.5 39t45.5 16.5q23 0 38 -17.5t11 -38t-26.5 -38t-45.5 -17.5q-25 0 -38 16.5t-9 39z" />
<glyph unicode="&#xdd;" horiz-adv-x="1394" d="M373 1415h116l359 -692l657 692h115l-743 -774l-136 -641h-88l135 641zM1012 1524l174 178h135l-262 -178h-47z" />
<glyph unicode="&#xde;" horiz-adv-x="1095" d="M43 -401l387 1818h86l-98 -456q150 80 319 79q207 -4 317.5 -156.5t65.5 -369.5q-47 -221 -224 -376.5t-382 -155.5q-141 0 -289 79l-98 -462h-84zM256 195q-14 -49 68 -86t208 -41q166 4 313.5 134t186.5 310q37 178 -55 309t-258 131q-119 0 -214 -31.5t-118 -78.5z " />
<glyph unicode="&#xdf;" horiz-adv-x="1064" d="M35 -354l375 1769h86h366q154 -2 242 -105.5t59 -242.5q-20 -102 -93 -186t-177 -131q96 -45 139 -139.5t19 -209.5q-35 -162 -176.5 -278.5t-311.5 -118.5h-174l-65 82h256q133 6 245.5 98t139.5 217q27 123 -53.5 212t-235.5 98h-330l-225 -1065h-86zM365 797h366 q123 4 223.5 80.5t122.5 189.5q23 104 -44.5 182t-186.5 84h-37h-330z" />
<glyph unicode="&#xe0;" horiz-adv-x="831" d="M143 289q29 135 149 223t263 88h233l9 45q29 127 -13.5 215t-138.5 90h-2q-133 0 -244 -30l-4 81q129 35 267 35h2q119 -2 185 -103.5t44 -246.5l-4 -20q-43 -176 -78 -347q-68 -303 -53 -319h-96l16 82q-125 -102 -270 -102q-135 0 -213.5 91t-51.5 218zM231 289 q-18 -92 39.5 -156.5t157.5 -64.5q102 0 188 64.5t105 156.5l49 227h-233q-109 0 -197.5 -63.5t-108.5 -163.5zM467 1311h135l96 -178h-47z" />
<glyph unicode="&#xe1;" horiz-adv-x="831" d="M143 289q29 135 149 223t263 88h233l9 45q29 127 -13.5 215t-138.5 90h-2q-133 0 -244 -30l-4 81q129 35 267 35h2q119 -2 185 -103.5t44 -246.5l-4 -20q-43 -176 -78 -347q-68 -303 -53 -319h-96l16 82q-125 -102 -270 -102q-135 0 -213.5 91t-51.5 218zM231 289 q-18 -92 39.5 -156.5t157.5 -64.5q102 0 188 64.5t105 156.5l49 227h-233q-109 0 -197.5 -63.5t-108.5 -163.5zM606 1133l174 178h135l-262 -178h-47z" />
<glyph unicode="&#xe2;" horiz-adv-x="831" d="M143 289q29 135 149 223t263 88h233l9 45q29 127 -13.5 215t-138.5 90h-2q-133 0 -244 -30l-4 81q129 35 267 35h2q119 -2 185 -103.5t44 -246.5l-4 -20q-43 -176 -78 -347q-68 -303 -53 -319h-96l16 82q-125 -102 -270 -102q-135 0 -213.5 91t-51.5 218zM231 289 q-18 -92 39.5 -156.5t157.5 -64.5q102 0 188 64.5t105 156.5l49 227h-233q-109 0 -197.5 -63.5t-108.5 -163.5zM440 1163l267 217l174 -219l-64 -51l-133 170l-205 -170z" />
<glyph unicode="&#xe3;" horiz-adv-x="831" d="M143 289q29 135 149 223t263 88h233l9 45q29 127 -13.5 215t-138.5 90h-2q-133 0 -244 -30l-4 81q129 35 267 35h2q119 -2 185 -103.5t44 -246.5l-4 -20q-43 -176 -78 -347q-68 -303 -53 -319h-96l16 82q-125 -102 -270 -102q-135 0 -213.5 91t-51.5 218zM231 289 q-18 -92 39.5 -156.5t157.5 -64.5q102 0 188 64.5t105 156.5l49 227h-233q-109 0 -197.5 -63.5t-108.5 -163.5zM385 1198q86 53 190 53q37 0 88.5 -16t81.5 -16q102 0 170 47l17 -58q-82 -55 -193 -55q-63 0 -104 23q-35 10 -70 10q-98 0 -159 -45z" />
<glyph unicode="&#xe4;" horiz-adv-x="831" d="M143 289q29 135 149 223t263 88h233l9 45q29 127 -13.5 215t-138.5 90h-2q-133 0 -244 -30l-4 81q129 35 267 35h2q119 -2 185 -103.5t44 -246.5l-4 -20q-43 -176 -78 -347q-68 -303 -53 -319h-96l16 82q-125 -102 -270 -102q-135 0 -213.5 91t-51.5 218zM231 289 q-18 -92 39.5 -156.5t157.5 -64.5q102 0 188 64.5t105 156.5l49 227h-233q-109 0 -197.5 -63.5t-108.5 -163.5zM522 1331.5q4 22.5 24.5 38.5t45.5 16q23 0 38 -17t11 -37.5t-26.5 -38t-45.5 -17.5q-25 0 -38 16.5t-9 39zM797 1331.5q4 22.5 24.5 38.5t44.5 16 q23 0 38.5 -17t11 -37.5t-27 -38t-44.5 -17.5q-25 0 -38 16.5t-9 39z" />
<glyph unicode="&#xe5;" horiz-adv-x="831" d="M528 1354q18 88 89 145t161 57q80 0 125 -58t27 -144q-16 -80 -86 -137.5t-150 -57.5q-88 0 -135 57.5t-31 137.5zM586 1354q-10 -53 26.5 -97.5t94.5 -44.5q49 0 101 45t62 97q12 57 -20.5 104t-81.5 47q-57 0 -113.5 -46t-68.5 -105zM143 289q29 135 149 223t263 88 h233l9 45q12 52 11 97q0 66 -25 118q-42 88 -138 90h-2q-133 0 -244 -30l-4 81q129 35 267 35h2q119 -2 185 -103q50 -76 50 -176q0 -34 -6 -71l-4 -20q-43 -176 -78 -347q-56 -250 -56 -304q0 -12 3 -15h-96l16 82q-125 -102 -270 -102q-135 0 -213 91q-58 68 -58 155 q-1 31 6 63zM231 289q-4 -22 -4 -43q0 -65 43 -114q57 -65 158 -64q102 0 188 64.5t105 156.5l49 227h-233q-109 0 -197.5 -63.5t-108.5 -163.5z" />
<glyph unicode="&#xe6;" horiz-adv-x="1521" d="M143 289q27 129 145 220t253 91h235q10 39 27 66q23 117 -23.5 198.5t-134.5 85.5h-2q-133 0 -244 -30l-4 81q129 35 267 35h2q90 -2 150 -62.5t77 -156.5q80 102 180 161.5t199 59.5q170 0 255 -149.5t38 -368.5l-11 -49h-710l-19 -94q4 -135 76 -223t186 -88 q113 0 283 75l18 -75q-111 -55 -262 -82h-2q-16 -2 -53 -2q-96 0 -172 49t-117 137q-33 -160 -22 -168h-96l16 82q-125 -102 -270 -102q-135 0 -213.5 91t-51.5 218zM231 289q-18 -92 39.5 -156.5t157.5 -64.5q102 0 188 64.5t105 156.5l14 63q-4 57 6 119l11 45h-230 q-100 0 -185.5 -66.5t-105.5 -160.5zM862 555h627q23 166 -45 280.5t-193 114.5t-239.5 -114.5t-149.5 -280.5z" />
<glyph unicode="&#xe7;" horiz-adv-x="1009" d="M186 510q47 217 223.5 371.5t381.5 154.5q211 0 317 -162l-72 -59q-94 135 -264 135q-168 0 -313.5 -129t-186.5 -311q-39 -184 53.5 -313t260.5 -129t311 127l49 -60q-164 -141 -356 -153l-29 -56q25 0 58.5 -34.5t23.5 -79.5q-14 -66 -129 -125l-53 53q35 4 70.5 21.5 t41.5 45.5q8 39 -22.5 55.5t-67.5 16.5q-4 0 -10 -1t-8 -1l27 111q-172 31 -259.5 177t-46.5 345z" />
<glyph unicode="&#xe8;" horiz-adv-x="933" d="M160 471l8 39q47 219 199.5 373.5t320.5 154.5q170 0 255 -149.5t38 -368.5l-10 -49h-723q-27 -170 47 -286.5t209 -118.5q113 0 282 75l19 -75q-111 -55 -262 -82h-2q-16 -2 -54 -2q-170 0 -264 142t-63 347zM266 555h641q23 166 -44.5 280.5t-192.5 114.5 q-123 0 -239 -114.5t-165 -280.5zM526 1311h136l96 -178h-47z" />
<glyph unicode="&#xe9;" horiz-adv-x="933" d="M160 471l8 39q47 219 199.5 373.5t320.5 154.5q170 0 255 -149.5t38 -368.5l-10 -49h-723q-27 -170 47 -286.5t209 -118.5q113 0 282 75l19 -75q-111 -55 -262 -82h-2q-16 -2 -54 -2q-170 0 -264 142t-63 347zM266 555h641q23 166 -44.5 280.5t-192.5 114.5 q-123 0 -239 -114.5t-165 -280.5zM666 1133l174 178h135l-262 -178h-47z" />
<glyph unicode="&#xea;" horiz-adv-x="933" d="M160 471l8 39q47 219 199.5 373.5t320.5 154.5q170 0 255 -149.5t38 -368.5l-10 -49h-723q-27 -170 47 -286.5t209 -118.5q113 0 282 75l19 -75q-111 -55 -262 -82h-2q-16 -2 -54 -2q-170 0 -264 142t-63 347zM266 555h641q23 166 -44.5 280.5t-192.5 114.5 q-123 0 -239 -114.5t-165 -280.5zM492 1163l266 217l174 -219l-64 -51l-133 170l-205 -170z" />
<glyph unicode="&#xeb;" horiz-adv-x="933" d="M160 471l8 39q47 219 199.5 373.5t320.5 154.5q170 0 255 -149.5t38 -368.5l-10 -49h-723q-27 -170 47 -286.5t209 -118.5q113 0 282 75l19 -75q-111 -55 -262 -82h-2q-16 -2 -54 -2q-170 0 -264 142t-63 347zM266 555h641q23 166 -44.5 280.5t-192.5 114.5 q-123 0 -239 -114.5t-165 -280.5zM553 1331.5q4 22.5 24.5 38.5t45.5 16q23 0 38 -17t11 -37.5t-26.5 -38t-45.5 -17.5q-25 0 -38 16.5t-9 39zM827 1331.5q4 22.5 24.5 38.5t45.5 16q23 0 38 -17t11 -37.5t-26.5 -38t-45.5 -17.5q-25 0 -38 16.5t-9 39z" />
<glyph unicode="&#xec;" horiz-adv-x="432" d="M197 0l217 1024h84l-217 -1024h-84zM311 1311h135l97 -178h-47z" />
<glyph unicode="&#xed;" horiz-adv-x="432" d="M135 0l217 1024h84l-217 -1024h-84zM346 1133l174 178h135l-262 -178h-47z" />
<glyph unicode="&#xee;" horiz-adv-x="362" d="M135 0l217 1024h84l-217 -1024h-84zM207 1163l266 217l174 -219l-63 -51l-133 170l-205 -170z" />
<glyph unicode="&#xef;" horiz-adv-x="362" d="M135 0l217 1024h84l-217 -1024h-84zM307 1331.5q4 22.5 24.5 38.5t45.5 16q23 0 38 -17t11 -37.5t-26.5 -38t-45.5 -17.5q-25 0 -38 16.5t-9 39zM500 1331.5q4 22.5 24.5 38.5t44.5 16q23 0 38.5 -17t11 -37.5t-27 -38t-44.5 -17.5q-25 0 -38 16.5t-9 39z" />
<glyph unicode="&#xf0;" horiz-adv-x="1001" d="M156 154l98 67q76 -147 244 -147q135 0 250.5 84t171.5 215q55 150 92 323q8 45 14 70q-166 -186 -401 -186q-170 0 -269.5 117.5t-66.5 287.5q0 2 1 7t1 7q37 176 188.5 301t327.5 125t274.5 -119.5t69.5 -291.5l-2 -6q-12 -96 -68 -344q-37 -180 -90 -314 q-63 -160 -211.5 -262t-314.5 -102q-98 0 -181 46t-128 122zM371 989q-23 -135 56 -230t214 -95q145 0 268 99t154 243q29 133 -53 232t-219 99q-143 0 -266 -103.5t-154 -244.5z" />
<glyph unicode="&#xf1;" horiz-adv-x="886" d="M82 0l197 930q18 76 8 86h96l-18 -82l-11 -55q135 162 318 161q143 0 220 -108.5t48 -265.5l-137 -666h-86l141 666q20 121 -41 204.5t-172 83.5q-102 0 -196.5 -73.5t-133.5 -184.5l-147 -696h-86zM430 1290q82 49 193 49q39 0 90 -17t86 -17q98 0 159 45l17 -60 q-86 -51 -193 -51q-61 0 -102 25q-33 12 -78 12q-80 0 -156 -45z" />
<glyph unicode="&#xf2;" horiz-adv-x="1079" d="M154 506q45 219 220 374.5t374 155.5q197 0 303 -155.5t59 -374.5q-47 -217 -219 -371.5t-369 -154.5q-199 0 -307 154.5t-61 371.5zM240 506q-39 -182 49 -311t252 -129q160 0 301 129t180 311q39 184 -47 314t-246 130q-164 0 -306 -130t-183 -314zM600 1311h135 l96 -178h-47z" />
<glyph unicode="&#xf3;" horiz-adv-x="1079" d="M154 506q45 219 220 374.5t374 155.5q197 0 303 -155.5t59 -374.5q-47 -217 -219 -371.5t-369 -154.5q-199 0 -307 154.5t-61 371.5zM240 506q-39 -182 49 -311t252 -129q160 0 301 129t180 311q39 184 -47 314t-246 130q-164 0 -306 -130t-183 -314zM752 1133l174 178 h135l-262 -178h-47z" />
<glyph unicode="&#xf4;" horiz-adv-x="1050" d="M154 506q45 219 220 374.5t374 155.5q197 0 303 -155.5t59 -374.5q-47 -217 -219 -371.5t-369 -154.5q-199 0 -307 154.5t-61 371.5zM240 506q-39 -182 49 -311t252 -129q160 0 301 129t180 311q39 184 -47 314t-246 130q-164 0 -306 -130t-183 -314zM551 1163l266 217 l174 -219l-63 -51l-133 170l-205 -170z" />
<glyph unicode="&#xf5;" horiz-adv-x="1050" d="M154 506q45 219 220 374.5t374 155.5q197 0 303 -155.5t59 -374.5q-47 -217 -219 -371.5t-369 -154.5q-199 0 -307 154.5t-61 371.5zM240 506q-39 -182 49 -311t252 -129q160 0 301 129t180 311q39 184 -47 314t-246 130q-164 0 -306 -130t-183 -314zM537 1276 q70 33 149 33q55 0 124 -30t122 -30q74 0 125 29l10 -61q-66 -33 -149 -33q-88 0 -144 39q-41 20 -100 20q-78 0 -125 -29z" />
<glyph unicode="&#xf6;" horiz-adv-x="1079" d="M154 506q45 219 220 374.5t374 155.5q197 0 303 -155.5t59 -374.5q-47 -217 -219 -371.5t-369 -154.5q-199 0 -307 154.5t-61 371.5zM240 506q-39 -182 49 -311t252 -129q160 0 301 129t180 311q39 184 -47 314t-246 130q-164 0 -306 -130t-183 -314zM637 1331.5 q4 22.5 24.5 38.5t45.5 16q23 0 38 -17t11 -37.5t-26.5 -38t-45.5 -17.5q-25 0 -38 16.5t-9 39zM911 1331.5q4 22.5 24.5 38.5t45.5 16q23 0 38 -17t11 -37.5t-26.5 -38t-45.5 -17.5q-25 0 -38 16.5t-9 39z" />
<glyph unicode="&#xf7;" horiz-adv-x="870" d="M193 559l16 86h706l-16 -86h-706zM424 287l29 131h131l-29 -131h-131zM532 793l27 131h131l-26 -131h-132z" />
<glyph unicode="&#xf8;" horiz-adv-x="1050" d="M154 506q45 219 220 374.5t374 155.5q197 0 305 -162l-78 -57q-84 133 -246 133q-164 0 -306 -130t-183 -314q-25 -117 4 -215l-78 -58q-43 121 -12 273zM197 166l73 55q82 -156 271 -155q160 0 301 129t180 311q29 131 -14 248l79 57q59 -137 23 -305 q-47 -217 -219 -371.5t-369 -154.5q-223 0 -325 186z" />
<glyph unicode="&#xf9;" horiz-adv-x="921" d="M176 369l137 651h84l-137 -651l2 -11q-23 -119 40 -203.5t173 -84.5q102 0 195.5 75.5t128.5 182.5l147 696h86l-196 -926q-18 -90 -11 -98h-96l19 94l10 49q-61 -74 -145.5 -117.5t-170.5 -43.5q-141 0 -216.5 109.5t-45.5 266.5zM524 1311h135l97 -178h-47z" />
<glyph unicode="&#xfa;" horiz-adv-x="921" d="M176 369l137 651h84l-137 -651l2 -11q-23 -119 40 -203.5t173 -84.5q102 0 195.5 75.5t128.5 182.5l147 696h86l-196 -926q-18 -90 -11 -98h-96l19 94l10 49q-61 -74 -145.5 -117.5t-170.5 -43.5q-141 0 -216.5 109.5t-45.5 266.5zM643 1133l174 178h135l-262 -178h-47z " />
<glyph unicode="&#xfb;" horiz-adv-x="921" d="M176 369l137 651h84l-137 -651l2 -11q-23 -119 40 -203.5t173 -84.5q102 0 195.5 75.5t128.5 182.5l147 696h86l-196 -926q-18 -90 -11 -98h-96l19 94l10 49q-61 -74 -145.5 -117.5t-170.5 -43.5q-141 0 -216.5 109.5t-45.5 266.5zM485 1163l267 217l174 -219l-64 -51 l-133 170l-205 -170z" />
<glyph unicode="&#xfc;" horiz-adv-x="921" d="M176 369l137 651h84l-137 -651l2 -11q-23 -119 40 -203.5t173 -84.5q102 0 195.5 75.5t128.5 182.5l147 696h86l-196 -926q-18 -90 -11 -98h-96l19 94l10 49q-61 -74 -145.5 -117.5t-170.5 -43.5q-141 0 -216.5 109.5t-45.5 266.5zM547 1331.5q4 22.5 24.5 38.5t44.5 16 q23 0 38.5 -17t11.5 -37.5t-27 -38t-45 -17.5q-25 0 -38 16.5t-9 39zM821 1331.5q4 22.5 24.5 38.5t45.5 16q23 0 38 -17t11 -37.5t-26.5 -38t-45.5 -17.5q-25 0 -38 16.5t-9 39z" />
<glyph unicode="&#xfd;" horiz-adv-x="1095" d="M25 -399l28 88q2 -4 7.5 -6t7.5 -7h4q6 0 22.5 -1t24.5 -1q74 0 152.5 50.5t131.5 138.5l125 203l-188 970h92l162 -864l524 864h92l-598 -964l-141 -240l-8 -18q-72 -104 -170 -164t-197 -60q-34 1 -71 11zM772 1133l174 178h135l-262 -178h-47z" />
<glyph unicode="&#xfe;" horiz-adv-x="1058" d="M43 -401l387 1818h86l-98 -456q150 80 319 79q207 -4 317.5 -156.5t65.5 -369.5q-47 -221 -224 -376.5t-382 -155.5q-141 0 -289 79l-98 -462h-84zM256 195q-14 -49 68 -86t208 -41q166 4 313.5 134t186.5 310q37 178 -55 309t-258 131q-119 0 -214 -31.5t-118 -78.5z " />
<glyph unicode="&#xff;" horiz-adv-x="1095" d="M25 -399l28 88q2 -4 7.5 -6t7.5 -7h4q6 0 22.5 -1t24.5 -1q74 0 152.5 50.5t131.5 138.5l125 203l-188 970h92l162 -864l524 864h92l-598 -964l-141 -240l-8 -18q-72 -104 -170 -164t-197 -60q-34 1 -71 11zM655 1331.5q4 22.5 24.5 38.5t45.5 16q23 0 38 -17t11 -37.5 t-26.5 -38t-45.5 -17.5q-25 0 -38 16.5t-9 39zM930 1331.5q4 22.5 24.5 38.5t44.5 16q23 0 38.5 -17t11 -37.5t-27 -38t-44.5 -17.5q-25 0 -38 16.5t-9 39z" />
<glyph unicode="&#x152;" horiz-adv-x="2162" d="M211 707q63 297 295.5 506.5t499.5 209.5q180 0 307 -95t176 -259l74 346h817l-17 -82h-731l-114 -536h624l-18 -86h-625l-133 -625h731l-16 -86h-817l71 340q-66 -90 -147 -160q-225 -199 -487.5 -198.5t-409 210.5t-80.5 515zM299 707q-57 -266 64.5 -451.5 t355.5 -185.5q223 0 416.5 166.5t265.5 412.5l24 113q31 242 -90 405q-117 168 -348 168t-432 -183t-256 -445z" />
<glyph unicode="&#x153;" horiz-adv-x="1802" d="M154 506q45 219 220 374.5t374 155.5q143 0 242.5 -88t125.5 -231q76 143 197 232t246 89q170 0 254.5 -149.5t37.5 -368.5l-10 -49h-723q-27 -170 47 -286.5t209 -118.5q113 0 283 75l18 -75q-111 -55 -262 -82h-2q-16 -2 -53 -2q-131 0 -220 88t-108 231 q-88 -143 -225 -232t-283 -89q-199 0 -307 154.5t-61 371.5zM240 506q-39 -182 49 -311t252 -129q160 0 301 129t180 311q39 184 -47 314t-246 130q-164 0 -306 -130t-183 -314zM1137 555h641q23 166 -45 280.5t-193 114.5q-123 0 -238.5 -114.5t-164.5 -280.5z" />
<glyph unicode="&#x178;" horiz-adv-x="1394" d="M373 1415h116l359 -692l657 692h115l-743 -774l-136 -641h-88l135 641zM825 1542.5q4 22.5 24.5 38.5t45.5 16q23 0 38 -17t11 -37.5t-26.5 -38t-45.5 -17.5q-25 0 -38 16.5t-9 39zM1100 1542.5q4 22.5 24.5 38.5t44.5 16q23 0 38.5 -17t11 -37.5t-27 -38t-44.5 -17.5 q-25 0 -38 16.5t-9 39z" />
<glyph unicode="&#x2c6;" horiz-adv-x="548" d="M311 1163l267 217l174 -219l-64 -51l-133 170l-205 -170z" />
<glyph unicode="&#x2dc;" horiz-adv-x="684" d="M338 1276q70 33 149 33q55 0 124 -30t122 -30q74 0 125 29l10 -61q-66 -33 -149 -33q-88 0 -144 39q-41 20 -100 20q-78 0 -125 -29z" />
<glyph unicode="&#x2000;" horiz-adv-x="907" />
<glyph unicode="&#x2001;" horiz-adv-x="1816" />
<glyph unicode="&#x2002;" horiz-adv-x="907" />
<glyph unicode="&#x2003;" horiz-adv-x="1816" />
<glyph unicode="&#x2004;" horiz-adv-x="604" />
<glyph unicode="&#x2005;" horiz-adv-x="452" />
<glyph unicode="&#x2006;" horiz-adv-x="301" />
<glyph unicode="&#x2007;" horiz-adv-x="301" />
<glyph unicode="&#x2008;" horiz-adv-x="225" />
<glyph unicode="&#x2009;" horiz-adv-x="362" />
<glyph unicode="&#x200a;" horiz-adv-x="100" />
<glyph unicode="&#x2010;" horiz-adv-x="862" d="M205 559l16 86h707l-17 -86h-706z" />
<glyph unicode="&#x2011;" horiz-adv-x="862" d="M205 559l16 86h707l-17 -86h-706z" />
<glyph unicode="&#x2012;" horiz-adv-x="862" d="M205 559l16 86h707l-17 -86h-706z" />
<glyph unicode="&#x2013;" horiz-adv-x="851" d="M205 559l16 86h707l-17 -86h-706z" />
<glyph unicode="&#x2014;" horiz-adv-x="1089" d="M205 559l16 86h940l-16 -86h-940z" />
<glyph unicode="&#x2018;" horiz-adv-x="307" d="M330 1214l133 199l14 -8l-49 -152l27 -116l-97 -41z" />
<glyph unicode="&#x2019;" horiz-adv-x="325" d="M313 1139l95 137l12 129l100 10l-12 -129l-186 -160z" />
<glyph unicode="&#x201a;" horiz-adv-x="352" d="M51 -129l109 129l26 131h99l-27 -131l-199 -141z" />
<glyph unicode="&#x201c;" horiz-adv-x="446" d="M344 1286l41 129l96 -10l-41 -129l37 -137l-16 -13zM494 1286l41 129l96 -10l-41 -129l37 -137l-17 -13z" />
<glyph unicode="&#x201d;" horiz-adv-x="485" d="M313 1139l95 137l12 129l100 10l-12 -129l-186 -160zM463 1139l94 137l12 129l101 10l-13 -129l-186 -160z" />
<glyph unicode="&#x201e;" horiz-adv-x="473" d="M33 -125l104 131l25 129h100l-29 -129l-194 -143zM182 -127l107 131l26 129h97l-27 -131l-197 -143z" />
<glyph unicode="&#x2022;" horiz-adv-x="428" d="M258 786q10 51 57 90t99 39q49 0 79.5 -38.5t20.5 -90.5q-10 -45 -58 -83.5t-97.5 -38.5t-80 37.5t-20.5 84.5z" />
<glyph unicode="&#x2026;" horiz-adv-x="890" d="M88 0l27 131h131l-27 -131h-131zM385 0l27 131h131l-27 -131h-131zM682 0l27 131h131l-27 -131h-131z" />
<glyph unicode="&#x202f;" horiz-adv-x="362" />
<glyph unicode="&#x2039;" horiz-adv-x="720" d="M205 508l606 504l49 -60l-534 -444l348 -434l-74 -64z" />
<glyph unicode="&#x203a;" horiz-adv-x="702" d="M113 74l532 434l-346 444l78 60l389 -504l-604 -498z" />
<glyph unicode="&#x205f;" horiz-adv-x="452" />
<glyph unicode="&#x20ac;" horiz-adv-x="1525" d="M197 535l18 88h205q4 14 6 41.5t4 35.5q6 27 20.5 71t14.5 46h-209l18 86h228q111 227 322.5 373.5t435.5 146.5q287 0 452 -227l-78 -63q-139 203 -393 202q-193 0 -372 -119.5t-279 -312.5h702l-18 -86h-721q-23 -61 -35 -117q0 -4 -4 -33.5t-8 -43.5h727l-19 -88h-706 q4 -201 134 -333t331 -132q258 0 479 209l49 -70q-262 -227 -547 -227q-238 0 -386 156.5t-152 396.5h-219z" />
<glyph unicode="&#x2122;" horiz-adv-x="854" d="M348 1339l12 60h308l-13 -60h-118l-76 -356h-66l76 356h-123zM618 983l89 416h53l71 -195l156 195h51l-88 -416h-61l59 283q-94 -113 -119 -148h-32l-56 148l-59 -283h-64z" />
<glyph unicode="&#xe000;" horiz-adv-x="1025" d="M0 1025h1025v-1025h-1025v1025z" />
<glyph unicode="&#xfb01;" horiz-adv-x="1034" d="M233 0l193 913h-156l19 88h151q2 0 6 15l7 39l6 24q37 141 144.5 242.5t225.5 101.5q66 0 99 -4l-43 -84q-16 4 -72 4q-92 -2 -172 -85t-104 -199l-13 -54h269l-211 -1001h-84l192 913h-184l-193 -913h-80z" />
<glyph unicode="&#xfb02;" horiz-adv-x="1003" d="M233 0l193 913h-156l19 88h151q2 0 6 15l7 39l6 24q37 143 143.5 241.5t226.5 102.5h11h88l-301 -1423h-88l192 913h-225l-193 -913h-80zM524 1001h226l73 338h-10q-92 -2 -172 -85t-104 -199z" />
<glyph unicode="&#xfb03;" horiz-adv-x="1705" d="M1478 0l217 1024h84l-217 -1024h-84zM1744 1331q4 23 24.5 39t45.5 16q23 0 38 -17q12 -14 12 -29q0 -25 -27 -47q-23 -17 -45 -17q-25 0 -38 16q-10 13 -11 29q0 5 1 10zM905 0l193 913h-156l19 88h151q2 0 6 15l7 39l6 24q37 141 144.5 242.5t225.5 101.5q66 0 99 -4 l-43 -84q-16 4 -72 4q-92 -2 -172 -85t-104 -199l-13 -54h271l-19 -88h-270l-193 -913h-80zM233 0l193 913h-156l19 88h151q2 0 6 15l7 39l6 24q37 141 144.5 242.5t225.5 101.5q66 0 99 -4l-43 -84q-16 4 -72 4q-92 -2 -172 -85t-104 -199l-13 -54h271l-19 -88h-270 l-193 -913h-80z" />
<glyph unicode="&#xfb04;" horiz-adv-x="1675" d="M1478 0l299 1415h86l-299 -1415h-86zM905 0l193 913h-156l19 88h151q2 0 6 15l7 39l6 24q37 141 144.5 242.5t225.5 101.5q66 0 99 -4l-43 -84q-16 4 -72 4q-92 -2 -172 -85t-104 -199l-13 -54h271l-19 -88h-270l-193 -913h-80zM233 0l193 913h-156l19 88h151q2 0 6 15 l7 39l6 24q37 141 144.5 242.5t225.5 101.5q66 0 99 -4l-43 -84q-16 4 -72 4q-92 -2 -172 -85t-104 -199l-13 -54h271l-19 -88h-270l-193 -913h-80z" />
<glyph horiz-adv-x="526" />
</font>
</defs>
</svg>
