<?xml version="1.0" standalone="no"?>
<!DOCTYPE svg PUBLIC "-//W3C//DTD SVG 1.1//EN" "http://www.w3.org/Graphics/SVG/1.1/DTD/svg11.dtd" >
<svg xmlns="http://www.w3.org/2000/svg">
<metadata>
This is a custom SVG webfont generated by Font Squirrel.
Copyright   : Llicia gratu  Free License La Tipomatika
Designer    : La Tipomatika Digital Type Foundry
Foundry     : La Tipomatika
</metadata>
<defs>
<font id="webfontDwDY5miR" horiz-adv-x="1220" >
<font-face units-per-em="2048" ascent="1638" descent="-410" />
<missing-glyph horiz-adv-x="526" />
<glyph unicode=" "  horiz-adv-x="526" />
<glyph unicode="&#x09;" horiz-adv-x="526" />
<glyph unicode="&#xa0;" horiz-adv-x="526" />
<glyph unicode="!" horiz-adv-x="360" d="M102 43q0 27 17.5 44t44.5 17q55 0 59 -59v-2q0 -25 -17.5 -43t-41.5 -18q-27 0 -44.5 18t-17.5 43zM115 197v1208h98v-1208h-98z" />
<glyph unicode="&#x22;" horiz-adv-x="444" d="M63 1405h121l17 -141l-86 -183l-31 31zM213 1405h121l16 -141l-86 -183l-31 31z" />
<glyph unicode="#" horiz-adv-x="1462" d="M45 813l92 115h344l146 383h118l-139 -383h447q16 47 143 383h119l-139 -383h241l-92 -115h-188q-10 -29 -31 -81l-37 -95l-31 -82h381l-96 -115h-328l-157 -440h-123l162 440h-451l-160 -440h-121l162 440h-260l94 115h205l96 258h-397zM469 555h449l94 258h-447z" />
<glyph unicode="$" horiz-adv-x="954" d="M61 184l91 72q43 -63 114.5 -110.5t149.5 -51.5v551q-158 33 -255.5 138.5t-97.5 244.5q0 141 99.5 244.5t253.5 132.5v92h110v-86q207 -6 353 -168l-91 -72q-102 123 -262 134v-566q156 -35 257.5 -139t101.5 -242q0 -141 -102.5 -244.5t-256.5 -125.5v-119h-110v115 h-10q-104 10 -196 64t-149 136zM180 1036q0 -92 65.5 -170t170.5 -104v532q-100 -25 -168 -97.5t-68 -160.5zM526 100q104 16 173 86t69 166q0 98 -67.5 177t-174.5 102v-531z" />
<glyph unicode="&#x26;" horiz-adv-x="1222" d="M78 389q0 250 321 395q8 4 18.5 8.5t16.5 8.5q-4 4 -22 28q-96 100 -126 164t-30 129q0 117 91 204t233 87q133 0 219 -81t86 -197q0 -180 -256 -322l-31 -16l307 -383q4 6 10.5 19t8.5 20q47 94 65 178l127 -27q-63 -190 -125 -282q0 -6 -2 -17.5t-2 -15.5 q39 -61 60.5 -87t72.5 -67v-133q-86 53 -170 156q-12 16 -14 18l-25 31q-6 -8 -22 -25q-164 -184 -387 -182q-180 0 -302 114.5t-122 274.5zM211 399q0 -113 84 -206t207 -93q86 -2 175 50.5t144 134.5v-2q6 12 13 18l-347 432l-20 -14q-256 -148 -256 -320zM379 1139 q4 -84 74 -164l94 -109l18 11h-2q113 66 155 122t42 134q0 82 -53.5 137t-137.5 55q-78 0 -134 -54t-56 -132zM987 287l2 -6l-2 8v-2z" />
<glyph unicode="'" horiz-adv-x="247" d="M31 1118l67 139l-16 138l123 10l16 -143l-162 -172z" />
<glyph unicode="(" horiz-adv-x="532" d="M84 590q0 268 66.5 494.5t175.5 340.5l49 -125q-78 -94 -123 -285.5t-45 -424.5q0 -254 54 -456t140 -286l-65 -108q-113 111 -182.5 341t-69.5 509z" />
<glyph unicode=")" horiz-adv-x="503" d="M102 -152q88 84 142.5 286t54.5 456q0 233 -45 424.5t-123 285.5l47 125q109 -117 176.5 -343t67.5 -492q0 -279 -69.5 -508t-182.5 -342z" />
<glyph unicode="*" horiz-adv-x="964" d="M125 1075v111h221l-158 157l78 80l158 -157v223h111v-223l157 157l80 -77l-158 -158h224v-113h-226l160 -160l-78 -75l-159 157v-225h-111v221l-158 -153l-80 75l160 160h-221z" />
<glyph unicode="+" horiz-adv-x="925" d="M104 545v110h302v301h110v-301h303v-110h-303v-303h-110v303h-302z" />
<glyph unicode="," horiz-adv-x="354" d="M63 -111l80 129v138h123v-148l-180 -153z" />
<glyph unicode="-" horiz-adv-x="862" d="M76 545v110h715v-110h-715z" />
<glyph unicode="." horiz-adv-x="296" d="M74 0v156h155v-156h-155z" />
<glyph unicode="/" horiz-adv-x="774" d="M76 0l514 1405h119l-512 -1405h-121z" />
<glyph unicode="0" horiz-adv-x="1200" d="M80 698q0 295 152.5 505t367.5 210t365.5 -209t150.5 -506q0 -295 -150.5 -505.5t-365.5 -210.5q-213 0 -366.5 210.5t-153.5 505.5zM193 698q0 -252 119.5 -428t287.5 -176q170 0 288 176t118 428t-118 427t-288 175q-168 0 -287.5 -176t-119.5 -426z" />
<glyph unicode="1" horiz-adv-x="538" d="M57 1184l267 221h102v-1405h-113v1255l-178 -147z" />
<glyph unicode="2" horiz-adv-x="972" d="M106 0v102l584 654q84 94 84 217q0 137 -98 232t-240 95q-133 0 -241 -102l-80 80q156 135 321 135q186 0 317.5 -129t131.5 -311q0 -172 -121 -297l-500 -565h621v-111h-779z" />
<glyph unicode="3" horiz-adv-x="882" d="M39 133l78 78q113 -123 266 -123q133 0 227.5 86t94.5 205q0 98 -89.5 179t-207.5 104h-197v110h199q125 8 212 85t87 179q0 111 -94.5 189t-225.5 78q-168 0 -272 -117l-78 82q135 145 350 145q180 0 309 -110.5t129 -266.5q0 -102 -60 -187t-159 -134 q96 -53 152.5 -142.5t56.5 -193.5q0 -168 -127 -285t-307 -117q-205 0 -344 156z" />
<glyph unicode="4" horiz-adv-x="968" d="M68 506l4 102l463 801l96 -53l-426 -738h368v306h113v-306h197v-112h-197v-506h-113v506h-505z" />
<glyph unicode="5" horiz-adv-x="1032" d="M92 700l49 705h762v-113h-653q-6 -51 -18.5 -181l-20.5 -208q113 111 291 111q190 0 323 -147.5t133 -356.5q0 -211 -133 -360.5t-323 -149.5q-109 0 -207 57.5t-162 153.5l80 80q51 -84 126 -132t163 -48q143 0 243.5 116.5t100.5 282.5t-100.5 280.5t-243.5 114.5 q-98 0 -180 -56t-123 -149h-107z" />
<glyph unicode="6" horiz-adv-x="1036" d="M102 676v43q0 197 27 328q29 154 147.5 259t276.5 109q229 0 377 -192l-109 -66q-49 68 -119.5 107t-146.5 39q-119 0 -211 -82t-113 -205q-27 -141 -26 -322v-16q117 152 319 162q178 0 308.5 -118t132.5 -296v-18q0 -178 -125 -301t-305 -123q-172 0 -294 119.5 t-130 297.5v-2q-9 89 -9 277zM221 401q0 -127 94.5 -218t223.5 -91q131 0 224 92t93 219v19q-4 131 -97 219t-224.5 88t-222.5 -97.5t-91 -230.5z" />
<glyph unicode="7" horiz-adv-x="907" d="M74 0l602 1292h-549v113h731l-655 -1405h-129z" />
<glyph unicode="8" horiz-adv-x="940" d="M57 395q0 111 59.5 209t151.5 154q-166 100 -166 297q0 147 107.5 252.5t259.5 105.5q156 0 264.5 -105.5t108.5 -252.5q0 -201 -166 -297q96 -55 152.5 -151.5t56.5 -211.5q0 -172 -121 -292.5t-295 -120.5q-170 0 -291 121.5t-121 291.5zM170 395q0 -121 89 -211 t210 -90q127 0 216 89t89 212q0 125 -89 214t-216 89q-121 0 -210 -89t-89 -214zM213 1055q0 -100 76 -173t180 -73q106 0 182 71.5t76 174t-74.5 174t-183.5 71.5q-104 0 -180 -71.5t-76 -173.5z" />
<glyph unicode="9" horiz-adv-x="1001" d="M72 973v14q0 176 125 302t303 126q170 0 294 -124t138 -298q6 -86 6 -280v-54q0 -178 -25 -307q-31 -162 -157.5 -264t-292.5 -102q-98 0 -192.5 49t-159.5 131l102 84q104 -150 264 -150q125 0 216 79t118 200q23 152 23 313v25q-61 -70 -150.5 -112t-187.5 -42 q-170 0 -296 120t-128 290zM178 977q8 -127 100.5 -215t217.5 -88q135 0 229 92t94 225q0 125 -96 217t-221 92q-135 0 -229.5 -96t-94.5 -227z" />
<glyph unicode=":" horiz-adv-x="372" d="M111 0v156h155v-156h-155zM111 868v156h155v-156h-155z" />
<glyph unicode=";" horiz-adv-x="346" d="M41 -111l80 129v138h125v-148l-183 -153zM111 868v156h153v-156h-153z" />
<glyph unicode="&#x3c;" horiz-adv-x="675" d="M43 508l504 510l82 -78l-428 -432l428 -422l-80 -82z" />
<glyph unicode="=" horiz-adv-x="901" d="M133 399v115h694v-115h-694zM133 784v117h694v-117h-694z" />
<glyph unicode="&#x3e;" horiz-adv-x="688" d="M63 86l429 422l-429 432l80 78l506 -510l-506 -504z" />
<glyph unicode="?" horiz-adv-x="839" d="M63 1229q53 84 137.5 134t180.5 50q156 0 266.5 -114.5t110.5 -276.5q0 -156 -108.5 -269.5t-262.5 -113.5h-88l188 -639h-118l-185 649v101h203q111 4 186.5 81.5t75.5 190.5q0 117 -78.5 199t-189.5 82q-147 0 -238 -154zM403 -178.5q0 28.5 20.5 48t47.5 19.5 q66 0 66 -67q0 -31 -17.5 -51.5t-48.5 -20.5q-27 0 -47.5 21.5t-20.5 50z" />
<glyph unicode="@" horiz-adv-x="1544" d="M94 664q0 324 197.5 536.5t515.5 212.5q256 0 437 -155.5t181 -417.5q0 -195 -117.5 -366t-291.5 -193q-115 6 -152 51q-74 -57 -166 -58q-111 0 -188.5 80t-77.5 195t80 192.5t195 77.5h145q-4 195 -80 195q-78 0 -133 -21l-27 -2l-28 117l24 2q68 23 166 23 q168 -6 187 -289h4q-4 -156 -4 -299q0 -35 -3 -47q-6 -49 5.5 -75t64.5 -26q45 0 112.5 56.5t104.5 134.5q20 43 35.5 121.5t15.5 132.5q0 182 -139 311t-356 129q-248 0 -414 -173t-166 -433q0 -256 159 -399.5t441 -143.5q168 0 296 61.5t194 157.5h153l-12 -30 q-74 -135 -239.5 -227.5t-389.5 -92.5q-330 0 -529.5 172.5t-199.5 489.5zM530 548.5q0 -69.5 49.5 -117.5t118.5 -48q68 0 117 48t49 118v162h-157q-74 0 -125.5 -46.5t-51.5 -116z" />
<glyph unicode="A" d="M51 0l520 1415h93l520 -1415h-117l-215 575h-469l-215 -575h-117zM424 688h387l-195 520z" />
<glyph unicode="B" horiz-adv-x="1048" d="M100 0v1415h457q158 -2 269.5 -107.5t111.5 -246.5q0 -96 -50 -177t-132 -132q96 -51 153.5 -144.5t57.5 -199.5q0 -164 -119 -283t-291 -121h2l-37 -4h-422zM213 113h344q125 6 211 92t86 203q0 113 -86 196.5t-211 91.5h-344v-583zM213 809h344q115 4 191.5 75.5 t76.5 176.5q0 96 -77.5 167.5t-190.5 78.5h-344v-498z" />
<glyph unicode="C" horiz-adv-x="1208" d="M51 707q0 289 189.5 502.5t455.5 213.5q260 0 451 -206l-78 -76q-164 170 -373 170q-217 0 -373.5 -177.5t-156.5 -426.5q0 -252 152.5 -431.5t377.5 -179.5q201 0 369 168l78 -76q-197 -207 -447 -206q-258 0 -451.5 215t-193.5 510z" />
<glyph unicode="D" horiz-adv-x="1177" d="M68 0v1415h526q207 -2 352.5 -208t145.5 -496.5t-143.5 -496.5t-350.5 -214h-530zM180 113q70 0 210 2t208 2q158 4 269.5 178t111.5 416q0 244 -111.5 416.5t-273.5 175.5h-414v-1190z" />
<glyph unicode="E" horiz-adv-x="993" d="M82 0v1415h827v-108h-714v-498h610v-113h-610v-583h714v-113h-827z" />
<glyph unicode="F" horiz-adv-x="997" d="M90 0v1415h828v-106h-715v-500h610v-113h-610v-696h-113z" />
<glyph unicode="G" horiz-adv-x="1236" d="M45 700q0 299 190.5 511t456.5 212q256 0 453 -206l-78 -78q-164 170 -375 170q-221 0 -378.5 -177.5t-157.5 -431.5q0 -252 157.5 -431t378.5 -179q188 0 334 135v377h-383v109h496v-521l-4 -16q-186 -193 -443 -192q-266 0 -456.5 210.5t-190.5 507.5z" />
<glyph unicode="H" horiz-adv-x="1142" d="M92 0v1415h113v-606h737v606h111v-1415h-111v696h-737v-696h-113z" />
<glyph unicode="I" horiz-adv-x="282" d="M88 0v1415h113v-1415h-113z" />
<glyph unicode="J" horiz-adv-x="624" d="M53 80l74 78q57 -63 109 -64q66 0 111.5 73t45.5 181v1067h115v-1063q0 -150 -81 -260t-191 -110q-95 0 -183 98z" />
<glyph unicode="K" horiz-adv-x="1193" d="M82 0v1415h113v-731l626 731h150l-529 -616l682 -799h-145l-610 713l-174 -201v-512h-113z" />
<glyph unicode="L" horiz-adv-x="927" d="M82 0v1415h111v-1302h677v-113h-788z" />
<glyph unicode="M" horiz-adv-x="1275" d="M61 0v1415h107l453 -760l442 760h108v-1415h-114v1184l-404 -692h-69l-410 692v-1184h-113z" />
<glyph unicode="N" horiz-adv-x="1099" d="M88 0v1415h105l696 -1179v1179h112v-1415h-106l-696 1186v-1186h-111z" />
<glyph unicode="O" horiz-adv-x="1413" d="M53 707q0 297 188.5 506.5t456.5 209.5q274 0 458.5 -207.5t184.5 -508.5q0 -319 -196 -527q-182 -199 -447 -198q-262 0 -453.5 210t-191.5 515zM168 707q0 -256 153.5 -433.5t376.5 -177.5q227 0 381 177.5t154 433.5q0 268 -170 442q-143 160 -364.5 160t-376 -175 t-154.5 -427z" />
<glyph unicode="P" horiz-adv-x="983" d="M100 0v1415h412q168 0 287 -104.5t119 -249.5q0 -154 -118 -260.5t-288 -106.5h-301v-694h-111zM211 807h301q121 0 207 72.5t86 181.5q0 100 -87 173t-210 73h-297v-500z" />
<glyph unicode="Q" horiz-adv-x="1361" d="M70 754q0 283 176 476t420 193q246 0 423 -194.5t177 -474.5q0 -287 -191 -484q-129 -141 -317 -176q23 -123 76 -123q33 0 59 56l80 -70q-72 -92 -139 -92q-63 0 -113.5 64.5t-67.5 156.5q-238 14 -410.5 207t-172.5 461zM174 754q0 -227 135 -392t334 -176 q-22 57 -86 58h-4v100h7q71 0 124 -41q55 -43 70 -108q172 41 287.5 197.5t115.5 361.5q0 250 -160 415q-143 154 -331 154q-203 0 -347.5 -166.5t-144.5 -402.5z" />
<glyph unicode="R" horiz-adv-x="970" d="M80 0v1415h412q170 0 288.5 -103.5t118.5 -253t-118.5 -256t-288.5 -106.5h-170l614 -696h-145l-598 676v-676h-113zM193 809h299q121 0 207.5 72.5t86.5 177.5q0 102 -88 176t-211 74h-294v-500z" />
<glyph unicode="S" horiz-adv-x="993" d="M80 186l90 72q106 -164 311 -164q125 0 217.5 76t92.5 184q0 104 -86.5 187.5t-210.5 101.5q-176 20 -294 133t-118 262q0 164 128 273.5t312 109.5q229 0 381 -168l-92 -73q-109 135 -289 135q-129 0 -226 -79t-97 -189q0 -113 88 -198t219 -95q172 -23 286.5 -135.5 t114.5 -258.5q0 -158 -126 -268t-304 -110q-125 0 -229.5 55t-167.5 149z" />
<glyph unicode="T" horiz-adv-x="1177" d="M78 1307v108h1018v-108h-451v-1307h-113v1307h-454z" />
<glyph unicode="U" horiz-adv-x="1224" d="M80 360v1055h119v-1055q14 -106 134 -185t279 -79q154 0 271.5 79t132.5 185v1055h112v-1055q-6 -156 -158.5 -267t-357.5 -111q-213 0 -367.5 111t-164.5 267z" />
<glyph unicode="V" horiz-adv-x="1308" d="M76 1415h117l458 -1235l457 1235h119l-522 -1415h-109z" />
<glyph unicode="W" horiz-adv-x="1873" d="M84 1415h119l459 -1237l200 553l-250 684h117l207 -561l252 -674l454 1235h121l-520 -1415h-113l-208 561l-205 -561h-111z" />
<glyph unicode="X" horiz-adv-x="1107" d="M59 0l422 723l-403 692h127l352 -590l350 590h129l-411 -704l411 -711h-129l-362 610l-359 -610h-127z" />
<glyph unicode="Y" horiz-adv-x="1394" d="M51 1415h150l487 -667l494 667h147l-581 -778v-637h-115v637z" />
<glyph unicode="Z" horiz-adv-x="1122" d="M49 0l813 1303h-741v112h942l-809 -1302h727v-113h-932z" />
<glyph unicode="[" horiz-adv-x="430" d="M74 666v110h55q31 0 52.5 22.5t21.5 53.5v461q8 41 50 66.5t97 25.5v-115q-33 0 -35 6v-471q-27 -70 -86 -75v-56q66 -10 86 -73v-512q0 2 35 2v-111q-49 0 -98 31.5t-49 77.5v481q0 33 -21.5 54.5t-52.5 21.5h-55z" />
<glyph unicode="\" horiz-adv-x="759" d="M76 1405h119l514 -1405h-121z" />
<glyph unicode="]" horiz-adv-x="374" d="M47 0v111q27 0 39 4v503q16 72 80 76q0 14 4 56q-31 6 -54.5 27.5t-29.5 47.5v465h-39v115q59 0 99 -26.5t49 -65.5l4 -13v-448q0 -31 18.5 -53.5t48.5 -22.5h56v-110h-56q-31 0 -49 -21.5t-18 -54.5v-481q0 -45 -48.5 -77t-103.5 -32z" />
<glyph unicode="^" horiz-adv-x="1128" d="M51 907l510 504l504 -506l-82 -80l-422 428l-432 -428z" />
<glyph unicode="_" horiz-adv-x="1050" d="M76 0v111h866v-111h-866z" />
<glyph unicode="`" horiz-adv-x="417" d="M29 1303h178l149 -201h-75z" />
<glyph unicode="a" horiz-adv-x="831" d="M74 295q0 135 102.5 226t245.5 91h213v29q0 117 -55.5 199t-143.5 84q-129 0 -241 -33l-27 106q133 39 270 39q123 -2 212 -105.5t98 -248.5v-20q-4 -172 -5 -336q0 -291 33 -326h-141v61q-98 -82 -227 -81q-137 0 -235.5 92t-98.5 223zM186 295q0 -84 64.5 -142.5 t157.5 -58.5q94 0 160.5 58.5t66.5 142.5v207h-213q-98 0 -167 -58.5t-69 -148.5z" />
<glyph unicode="b" horiz-adv-x="1071" d="M84 0q25 35 33 201v1204h112v-432q111 63 281 63q203 0 347 -155.5t144 -370.5q0 -217 -143 -371.5t-348 -158.5q-184 10 -287 67v-47h-139zM223 201q0 -43 84 -74t203 -35q156 4 268.5 126t112.5 292q0 166 -113.5 290t-267.5 124q-106 0 -189 -29t-98 -68v-626z" />
<glyph unicode="c" horiz-adv-x="978" d="M41 508q0 217 144.5 372.5t344.5 155.5q207 0 363 -170l-80 -82q-119 139 -283 140q-158 0 -268 -121t-110 -295q0 -170 111.5 -292t266.5 -122q160 0 277 133l82 -77q-162 -168 -359 -168q-201 0 -345 154.5t-144 371.5z" />
<glyph unicode="d" horiz-adv-x="1093" d="M98 516q0 215 144.5 366.5t347.5 153.5q176 0 280 -65v434h111v-1200q0 -168 39 -199h-150v45q-111 -55 -280 -65q-203 4 -347.5 158.5t-144.5 371.5zM207 516q0 -170 112.5 -292t274.5 -128q117 6 196.5 38t79.5 71v624q-10 39 -90 67t-190 28q-160 -4 -271.5 -124 t-111.5 -284z" />
<glyph unicode="e" horiz-adv-x="933" d="M51 473v37q0 217 121 372.5t291 155.5q172 0 288.5 -149.5t116.5 -368.5v-61h-702q10 -158 101 -261.5t218 -105.5q109 0 265 78l43 -98q-113 -61 -254 -88q-16 -2 -54 -2q-170 0 -296 142t-138 349zM168 567h592q-14 154 -98 255.5t-199 101.5q-109 0 -192 -102.5 t-103 -254.5z" />
<glyph unicode="f" horiz-adv-x="671" d="M68 889v112h147l-2 37v25q8 143 97 246.5t208 103.5q66 0 115 -6l-33 -113q-35 8 -82 9q-82 -4 -138 -80t-56 -183v-39h262v-112h-262v-889h-107v889h-149z" />
<glyph unicode="g" horiz-adv-x="1128" d="M63 -66q0 86 55.5 162t145.5 119q-14 35 -14 88q0 66 33 105q-139 102 -140 270q0 147 120 252.5t290 105.5q72 0 154 -22h372l-106 -111h-96q88 -102 88 -225q0 -147 -120 -250.5t-292 -103.5q-45 0 -98 12q-41 10 -64 10q-53 0 -53 -39q0 -51 57 -51q2 0 10.5 1t10.5 1 h10q14 4 49 4q174 0 295 -95t121 -232.5t-122 -235.5t-294 -98q-168 0 -290 98t-122 235zM172 -65.5q0 -90.5 91 -158t212 -67.5q129 0 219 66.5t90 158.5q0 90 -90 158t-219 68q-121 0 -212 -67.5t-91 -158zM254 678q0 -102 88 -175t211 -73q129 0 217 72.5t88 175.5 q0 106 -88 178t-217 72q-123 0 -211 -73t-88 -177z" />
<glyph unicode="h" horiz-adv-x="931" d="M86 0v1409h111v-496q106 125 264 125q145 0 244.5 -109.5t103.5 -266.5l6 -656h-110v656q-4 113 -79 189.5t-177 76.5q-86 0 -158 -71t-94 -167v-690h-111z" />
<glyph unicode="i" horiz-adv-x="362" d="M104 1309q0 29 20.5 48t51.5 19q29 0 50.5 -20.5t21.5 -47t-21.5 -47t-50.5 -20.5q-31 0 -51.5 20.5t-20.5 47.5zM121 0v1024h108v-1024h-108z" />
<glyph unicode="j" horiz-adv-x="724" d="M94 -387l10 106q33 0 62 -4q10 -2 27 -2l2 6q86 0 145 74t59 178v1055h111v-1073q-10 -143 -96 -243.5t-209 -104.5q-25 0 -66 4q-25 4 -45 4zM383 1298q0 31 18.5 49.5t51.5 18.5q25 0 45 -19.5t20 -48.5q0 -27 -20.5 -47t-44.5 -20q-31 0 -50.5 19t-19.5 48z" />
<glyph unicode="k" horiz-adv-x="901" d="M86 0q31 31 31 104v1301h110v-696l361 303h172l-324 -269l426 -743h-131l-381 670q-82 -74 -123 -107v-563h-141z" />
<glyph unicode="l" horiz-adv-x="331" d="M121 0v1405h110v-1405h-110z" />
<glyph unicode="m" horiz-adv-x="1513" d="M49 1024h141v-115q106 125 261 125q96 0 179 -55t130 -143q45 100 130 151t177 51q143 0 243.5 -108.5t104.5 -267.5l4 -658h-112v658q-4 111 -76 187.5t-172 76.5q-92 0 -164 -70t-90 -166v-686h-111v653q-2 113 -75.5 189t-178.5 76q-86 0 -157.5 -70t-92.5 -166v-686 h-110v913q0 29 -10.5 65t-20.5 46z" />
<glyph unicode="n" horiz-adv-x="886" d="M41 1016h141v-103q104 127 264 127q143 0 245 -109.5t106 -268.5l4 -662h-113v662q-2 113 -75.5 189.5t-176.5 76.5q-88 0 -159.5 -70t-94.5 -168v-690h-110v918q0 67 -31 98z" />
<glyph unicode="o" horiz-adv-x="1050" d="M39 506q0 219 141.5 374.5t340 155.5t337.5 -155.5t139 -374.5q0 -217 -139 -371.5t-337.5 -154.5t-340 154.5t-141.5 371.5zM152 506q0 -170 107.5 -292t260.5 -122q150 0 257.5 122t107.5 292q0 174 -106.5 296t-258.5 122q-154 0 -261 -122t-107 -296z" />
<glyph unicode="p" horiz-adv-x="1036" d="M39 1022h145v-47q135 68 285 67q207 -4 350.5 -157.5t143.5 -368.5q0 -221 -144.5 -376.5t-349.5 -155.5q-172 0 -283 65v-438h-110v1216q-4 160 -37 195zM184 190q10 -37 92 -64.5t193 -31.5q160 4 271.5 127t111.5 295q0 170 -112.5 291t-270.5 121q-119 0 -202 -30 t-83 -71v-637z" />
<glyph unicode="q" horiz-adv-x="1050" d="M70 528q0 209 140 358.5t335 149.5q174 0 276 -59v35h109v-1401h-109v475q-104 -66 -276 -66q-195 4 -335 152.5t-140 355.5zM178 528q0 -164 107.5 -280.5t259.5 -120.5q104 0 183 28.5t93 67.5v604q0 41 -81 71t-195 30q-152 0 -259.5 -117t-107.5 -283z" />
<glyph unicode="r" horiz-adv-x="571" d="M37 1026h156v-117q102 127 262 127q39 0 65 -10l-28 -111q-27 8 -48 9q-88 0 -159.5 -70t-91.5 -168v-686h-111v913q0 84 -45 113z" />
<glyph unicode="s" horiz-adv-x="854" d="M94 129l84 66q100 -100 246 -101q98 0 165.5 47t67.5 119q0 66 -69.5 125t-163.5 80q-135 20 -231.5 110.5t-96.5 192.5q0 117 101.5 191.5t244.5 74.5q94 0 183.5 -38t148.5 -101l-90 -66q-96 92 -250 93q-96 0 -160.5 -44t-64.5 -112t66.5 -125t168.5 -72 q139 -20 231.5 -109t92.5 -200q0 -121 -98.5 -198.5t-239.5 -77.5q-96 0 -188.5 38.5t-147.5 106.5z" />
<glyph unicode="t" horiz-adv-x="696" d="M94 897v113h148v395h112v-395h269v-113h-269v-897h-108v897h-152z" />
<glyph unicode="u" horiz-adv-x="921" d="M88 367v653h111v-647l2 -11q4 -109 78.5 -187.5t175.5 -78.5q90 0 159.5 71t87.5 167v690h111v-913q0 -33 10.5 -67t20.5 -44h-142v109q-111 -127 -262 -127q-141 0 -241.5 109.5t-104.5 266.5q-2 5 -6 9z" />
<glyph unicode="v" horiz-adv-x="1024" d="M37 1024h117l350 -856l346 856h123l-418 -1024h-106z" />
<glyph unicode="w" horiz-adv-x="1443" d="M29 1024h118l349 -854l143 354l-201 500h127l342 -854l346 854h123l-418 -1024l-108 6l-145 367l-158 -373l-105 6z" />
<glyph unicode="x" horiz-adv-x="909" d="M45 0l324 530l-314 494h140l247 -397l254 397h138l-320 -510l320 -514h-136l-262 416l-256 -416h-135z" />
<glyph unicode="y" horiz-adv-x="1095" d="M98 -387l17 115q16 -16 75 -17q70 0 132.5 46t93.5 130l78 193l-390 956h119l326 -815l323 815h119l-389 -958l2 2l-42 -108q-32 -81 -46 -126q-41 -113 -135 -179t-195 -66q-45 0 -88 12z" />
<glyph unicode="z" horiz-adv-x="925" d="M84 0v106l606 805h-600v113h754v-106l-606 -805h606v-113h-760z" />
<glyph unicode="{" horiz-adv-x="456" d="M74 666v110h55q31 0 52.5 22.5t21.5 53.5v461q8 41 50 66.5t97 25.5v-115q-33 0 -35 6v-471q-27 -70 -86 -75v-56q66 -10 86 -73v-512q0 2 35 2v-111q-49 0 -98 31.5t-49 77.5v481q0 33 -21.5 54.5t-52.5 21.5h-55z" />
<glyph unicode="|" horiz-adv-x="268" d="M102 2v1454h80v-1454h-80z" />
<glyph unicode="}" horiz-adv-x="385" d="M47 0v111q27 0 39 4v503q16 72 80 76q0 14 4 56q-31 6 -54.5 27.5t-29.5 47.5v465h-39v115q59 0 99 -26.5t49 -65.5l4 -13v-448q0 -31 18.5 -53.5t48.5 -22.5h56v-110h-56q-31 0 -49 -21.5t-18 -54.5v-481q0 -45 -48.5 -77t-103.5 -32z" />
<glyph unicode="~" horiz-adv-x="710" d="M53 657q82 57 201 58q45 0 106 -21q66 -18 93 -18q100 0 161 51l39 -88q-88 -59 -194 -59q-78 0 -129 30l2 -2q-37 12 -76 13q-94 0 -156 -52z" />
<glyph unicode="&#xa1;" horiz-adv-x="327" d="M104 1350v2q0 25 17.5 43t42 18t43 -18.5t18.5 -42.5q0 -27 -18.5 -44.5t-42.5 -17.5q-56 1 -60 60zM115 0v1200h98v-1200h-98z" />
<glyph unicode="&#xa2;" horiz-adv-x="978" d="M41 508q0 199 126 349.5t306 172.5v137h121v-137q166 -20 299 -164l-80 -82q-94 115 -219 134v-820q109 16 215 129l80 -77q-141 -143 -295 -164v-136h-121v138q-180 23 -306 172t-126 348zM152 508q0 -154 92 -270.5t229 -139.5v820q-137 -23 -229 -139.5t-92 -270.5z " />
<glyph unicode="&#xa3;" horiz-adv-x="1138" d="M45 600v111h240v694h110v-694h365v-111h-365v-489h672v-111h-782v600h-240z" />
<glyph unicode="&#xa5;" horiz-adv-x="1394" d="M53 1405h150l481 -664l492 664h147l-578 -774v-58h291v-114h-291v-49h291v-115h-291v-295h-114v295h-291v115h291v49h-291v114h291v58z" />
<glyph unicode="&#xa6;" horiz-adv-x="268" d="M102 2v711h80v-711h-80zM102 817v639h80v-639h-80z" />
<glyph unicode="&#xa7;" horiz-adv-x="729" d="M74 782q0 113 80 174q-2 14 -2 45q0 111 82.5 177.5t203.5 66.5q96 0 211 -51l-49 -104q-84 45 -166 45q-70 0 -119 -33t-53 -90q45 12 98 12q92 0 213 -51l-49 -105q-90 45 -168 45q-41 0 -65 -8q45 -76 147 -129q104 -51 168 -138t64 -179q0 -104 -80 -180q2 -14 2 -39 q0 -117 -86 -187.5t-205 -70.5q-98 0 -209 55l49 94q90 -39 158 -39q74 0 125 33t59 94q-55 -16 -108 -16q-102 0 -207 53l49 98q96 -41 162 -41q43 0 82 15q-37 78 -150 135q-104 51 -170.5 141t-66.5 178zM186 774q0 -59 48.5 -118.5t127.5 -98.5q125 -57 183 -158v2 q14 29 14 62q0 57 -49 119.5t-125 103.5q-119 51 -182 156q-17 -37 -17 -68z" />
<glyph unicode="&#xa8;" horiz-adv-x="538" d="M68 1308.5q0 26.5 21.5 47t50 20.5t50 -20.5t21.5 -47t-21.5 -47t-50 -20.5t-50 20.5t-21.5 47zM334 1308.5q0 26.5 21.5 47t50 20.5t50 -20.5t21.5 -47t-21.5 -47t-50 -20.5t-50 20.5t-21.5 47z" />
<glyph unicode="&#xaa;" horiz-adv-x="366" d="M41 762q0 53 40 89t101 36h56q-2 27 -16.5 49t-33.5 22q-47 0 -102 -18l-14 80q61 16 116 16q49 0 86 -43t39 -108q-2 -55 -2 -113q0 -35 13.5 -77t29.5 -58h-116v2q-23 -10 -60 -10q-57 0 -97 39t-40 94zM119 762q0 -20 17.5 -36.5t41.5 -16.5q23 0 41.5 16t18.5 37v49 h-60q-25 0 -42 -15.5t-17 -33.5z" />
<glyph unicode="&#xab;" horiz-adv-x="1089" d="M49 569l547 463l74 -86l-467 -391l387 -459l-82 -73zM387 569l547 463l74 -86l-467 -391l387 -459l-82 -73z" />
<glyph unicode="&#xac;" horiz-adv-x="1355" d="M80 688v111h1184v-473h-111v362h-1073z" />
<glyph unicode="&#xad;" horiz-adv-x="862" d="M76 545v110h715v-110h-715z" />
<glyph unicode="&#xb0;" horiz-adv-x="512" d="M43 1202q0 90 61.5 150.5t153.5 60.5q86 0 144.5 -60.5t58.5 -150.5q0 -84 -59.5 -144.5t-143.5 -60.5q-92 0 -153.5 59.5t-61.5 145.5zM127 1202q0 -47 40 -86t91 -39q43 0 81 39t38 86q0 49 -38 91t-81 42q-51 0 -91 -41t-40 -92z" />
<glyph unicode="&#xb1;" horiz-adv-x="925" d="M102 307v111h715v-111h-715zM104 915v113h302v301h110v-301h303v-113h-303v-301h-110v301h-302z" />
<glyph unicode="&#xb2;" horiz-adv-x="573" d="M51 1325q102 88 201 88q104 0 177 -71.5t73 -174.5q0 -92 -66 -174l-246 -274h312v-88h-445v80l314 350q43 43 43 106q0 61 -50.5 108.5t-111.5 47.5q-63 0 -133 -68z" />
<glyph unicode="&#xb3;" horiz-adv-x="542" d="M20 719l54 53h26q59 -63 131 -63q57 0 103.5 39.5t46.5 93.5q0 51 -43 92t-96 47h-119v88h121q53 4 95 43t42 84q0 47 -45 84t-103 37q-78 0 -145 -74l-65 70q86 92 210 92q100 0 171 -60.5t71 -148.5q0 -121 -96 -174q90 -76 90 -180q0 -92 -69.5 -155.5t-168.5 -63.5 q-121 0 -211 96z" />
<glyph unicode="&#xb4;" horiz-adv-x="428" d="M63 1102l152 201h176l-250 -201h-78z" />
<glyph unicode="&#xb6;" horiz-adv-x="782" d="M45 1063q0 143 99.5 242.5t240.5 99.5h170v-1405h-184v721q-133 10 -229.5 110.5t-96.5 231.5zM154 1071q0 -94 55 -161.5t137 -69.5v463q-82 -2 -137 -69t-55 -163zM575 4v1399h107v-1399h-107z" />
<glyph unicode="&#xb7;" horiz-adv-x="460" d="M115 639q0 43 35.5 79t83 36t85 -36t37.5 -79t-36.5 -77t-86 -34t-84 34t-34.5 77z" />
<glyph unicode="&#xb9;" horiz-adv-x="538" d="M57 1184l267 221h102v-627h-113v477l-178 -147z" />
<glyph unicode="&#xba;" horiz-adv-x="475" d="M43 823q0 92 55.5 152.5t139.5 60.5q78 0 132 -60.5t54 -152.5q0 -84 -54.5 -143t-131.5 -59q-82 0 -138.5 59t-56.5 143zM121 823q0 -47 36 -86t81 -39q39 0 72.5 39t33.5 86q0 51 -32.5 93t-73.5 42q-45 0 -81 -42t-36 -93z" />
<glyph unicode="&#xbb;" horiz-adv-x="1073" d="M47 946l74 86l547 -463l-459 -546l-82 73l387 459zM385 946l74 86l547 -463l-459 -546l-82 73l387 459z" />
<glyph unicode="&#xbc;" horiz-adv-x="782" d="M55 918l142 118h59v-612h-70v514q-12 -10 -84 -66zM309 254v59l236 406l61 -31l-213 -364h168v151h70v-151h98v-70h-98v-254h-70v254h-252z" />
<glyph unicode="&#xbd;" horiz-adv-x="727" d="M31 920l141 118h59v-614h-69v516q-12 -10 -84 -66zM264 0v59l295 330q39 43 39 103q0 68 -47 112.5t-115 44.5q-61 0 -121 -53l-49 49q80 74 170 74q96 0 164 -66.5t68 -160.5q0 -80 -64 -154l-242 -270h306v-68h-404z" />
<glyph unicode="&#xbe;" horiz-adv-x="937" d="M53 393l51 45q51 -61 129 -61q63 0 109.5 40t46.5 97q0 74 -75.5 112t-172.5 21v72h107q59 4 101 39t42 84q0 53 -45 91t-108 38q-80 0 -136 -62l-49 49q74 80 185 80q92 0 158.5 -57t66.5 -139q0 -106 -103 -158q98 -61 99 -170q0 -86 -65.5 -146.5t-160.5 -60.5 q-104 0 -180 86zM461 256v61l237 406l62 -31l-209 -364h162v151h71v-151h99v-72h-99v-252h-71v252h-252z" />
<glyph unicode="&#xbf;" horiz-adv-x="884" d="M88 371q0 158 110.5 274.5t260.5 116.5h92l-189 643h117l191 -653v-105h-211q-109 -4 -185.5 -84t-76.5 -192.5t79.5 -194.5t192.5 -82q145 0 242 152l80 -82q-55 -84 -139.5 -134t-182.5 -50q-156 0 -268.5 115.5t-112.5 275.5zM307 1579q0 33 18.5 52.5t51.5 19.5 q27 0 46 -20.5t19 -51.5q0 -29 -19.5 -49.5t-45.5 -20.5q-31 0 -50.5 19.5t-19.5 50.5z" />
<glyph unicode="&#xc0;" d="M51 0l520 1415h93l520 -1415h-117l-215 575h-469l-215 -575h-117zM356 1694h179l149 -201h-76zM424 688h387l-195 520z" />
<glyph unicode="&#xc1;" d="M51 0l520 1415h93l520 -1415h-117l-215 575h-469l-215 -575h-117zM424 688h387l-195 520zM569 1493l152 201h176l-250 -201h-78z" />
<glyph unicode="&#xc2;" d="M51 0l520 1415h93l520 -1415h-117l-215 575h-469l-215 -575h-117zM424 688h387l-195 520z" />
<glyph unicode="&#xc3;" d="M57 14l521 1416h92l520 -1416h-117l-215 576h-469l-215 -576h-117zM342 1626q86 55 190 55q43 0 101 -16q59 -18 84 -18q98 0 153 45l41 -82q-76 -55 -190 -56q-66 0 -119 25l2 -2q-35 12 -72 12q-86 0 -147 -45zM430 702h387l-194 521z" />
<glyph unicode="&#xc4;" d="M51 0l520 1415h93l520 -1415h-117l-215 575h-469l-215 -575h-117zM401 1540q0 27 21.5 47.5t50.5 20.5t50.5 -20.5t21.5 -47.5t-21.5 -47t-50.5 -20t-50.5 20t-21.5 47zM424 688h387l-195 520zM668 1540q0 27 21.5 47.5t50 20.5t50 -20.5t21.5 -47.5t-21.5 -47t-50 -20 t-50 20t-21.5 47z" />
<glyph unicode="&#xc5;" d="M408 1614q0 90 61.5 150.5t153.5 60.5q86 0 144.5 -60.5t58.5 -150.5q0 -84 -59.5 -144.5t-143.5 -60.5q-92 0 -153.5 59.5t-61.5 145.5zM492 1614q0 -47 40 -86t91 -39q43 0 81 39t38 86q0 49 -38 91t-81 42q-51 0 -91 -41t-40 -92zM51 0l520 1415h93l520 -1415h-117 l-215 575h-469l-215 -575h-117zM424 688h387l-195 520z" />
<glyph unicode="&#xc6;" horiz-adv-x="2213" d="M53 0l522 1415h1319v-108h-716v-498h612v-113h-612v-583h716v-113h-829v575h-678l-215 -575h-119zM428 688h637l18 619h-436z" />
<glyph unicode="&#xc7;" horiz-adv-x="1298" d="M100 700q0 303 189.5 513t458.5 210q258 0 450 -209l-80 -73q-164 174 -370 174q-223 0 -380 -181.5t-157 -433.5q0 -248 156.5 -429t380.5 -181q203 0 366 170l80 -76q-186 -199 -461 -202q-2 -4 -8 -23q33 -10 66.5 -45t33.5 -76q0 -72 -114 -135l-109 80q35 0 82 14.5 t47 44.5q0 25 -29.5 36t-58.5 11h-31l2 107q-219 53 -366.5 249.5t-147.5 454.5z" />
<glyph unicode="&#xc8;" horiz-adv-x="993" d="M82 0v1415h827v-108h-714v-498h610v-113h-610v-583h714v-113h-827zM215 1694h178l150 -201h-76z" />
<glyph unicode="&#xc9;" horiz-adv-x="993" d="M82 0v1415h827v-108h-714v-498h610v-113h-610v-583h714v-113h-827zM399 1493l152 201h176l-250 -201h-78z" />
<glyph unicode="&#xca;" horiz-adv-x="993" d="M260 1618l234 231l235 -233l-72 -70l-163 166l-166 -166zM82 0v1415h827v-108h-714v-498h610v-113h-610v-583h714v-113h-827z" />
<glyph unicode="&#xcb;" horiz-adv-x="993" d="M82 0v1415h827v-108h-714v-498h610v-113h-610v-583h714v-113h-827zM287 1542.5q0 26.5 21.5 47t50 20.5t50 -20.5t21.5 -47t-21.5 -47t-50 -20.5t-50 20.5t-21.5 47zM553 1542.5q0 26.5 21.5 47t50 20.5t50 -20.5t21.5 -47t-21.5 -47t-50 -20.5t-50 20.5t-21.5 47z" />
<glyph unicode="&#xcc;" horiz-adv-x="268" d="M-88 1694h178l150 -201h-76zM104 0v1415h113v-1415h-113z" />
<glyph unicode="&#xcd;" horiz-adv-x="315" d="M88 0v1415h113v-1415h-113zM100 1493l152 201h176l-250 -201h-78z" />
<glyph unicode="&#xce;" horiz-adv-x="282" d="M88 0v1415h113v-1415h-113z" />
<glyph unicode="&#xcf;" horiz-adv-x="282" d="M-68 1540q0 27 21.5 47.5t50.5 20.5t50.5 -20.5t21.5 -47.5t-21.5 -47t-50.5 -20t-50.5 20t-21.5 47zM88 0v1415h113v-1415h-113zM199 1540q0 27 21.5 47.5t50 20.5t50 -20.5t21.5 -47.5t-21.5 -47t-50 -20t-50 20t-21.5 47z" />
<glyph unicode="&#xd0;" horiz-adv-x="1337" d="M82 551v111h135v753h526q207 -2 352.5 -208t145.5 -496.5t-143.5 -496.5t-349.5 -214h-531v551h-135zM330 113q70 0 210 2t208 2q158 4 269 178t111 416q0 244 -111.5 416.5t-273.5 175.5h-413v-641h350v-111h-350v-438z" />
<glyph unicode="&#xd1;" horiz-adv-x="1099" d="M88 0v1415h105l696 -1179v1179h112v-1415h-106l-696 1186v-1186h-111zM266 1585q74 39 154 39q49 0 135 -29q70 -29 117 -28q66 0 123 37l30 -88q-72 -41 -153 -41q-92 0 -156 41h2q-43 16 -98 16q-63 0 -121 -35z" />
<glyph unicode="&#xd2;" horiz-adv-x="1413" d="M53 707q0 297 188.5 506.5t456.5 209.5q274 0 458.5 -207.5t184.5 -508.5q0 -319 -196 -527q-182 -199 -447 -198q-262 0 -453.5 210t-191.5 515zM168 707q0 -256 153.5 -433.5t376.5 -177.5q227 0 381 177.5t154 433.5q0 268 -170 442q-143 160 -364.5 160t-376 -175 t-154.5 -427zM401 1694h179l149 -201h-76z" />
<glyph unicode="&#xd3;" horiz-adv-x="1413" d="M53 707q0 297 188.5 506.5t456.5 209.5q274 0 458.5 -207.5t184.5 -508.5q0 -319 -196 -527q-182 -199 -447 -198q-262 0 -453.5 210t-191.5 515zM168 707q0 -256 153.5 -433.5t376.5 -177.5q227 0 381 177.5t154 433.5q0 268 -170 442q-143 160 -364.5 160t-376 -175 t-154.5 -427zM682 1493l152 201h176l-250 -201h-78z" />
<glyph unicode="&#xd4;" horiz-adv-x="1413" d="M465 1618l234 231l235 -233l-72 -70l-163 166l-166 -166zM53 707q0 297 188.5 506.5t456.5 209.5q274 0 458.5 -207.5t184.5 -508.5q0 -319 -196 -527q-182 -199 -447 -198q-262 0 -453.5 210t-191.5 515zM168 707q0 -256 153.5 -433.5t376.5 -177.5q227 0 381 177.5 t154 433.5q0 268 -170 442q-143 160 -364.5 160t-376 -175t-154.5 -427z" />
<glyph unicode="&#xd5;" horiz-adv-x="1413" d="M53 707q0 297 188.5 506.5t456.5 209.5q274 0 458.5 -207.5t184.5 -508.5q0 -319 -196 -527q-182 -199 -447 -198q-262 0 -453.5 210t-191.5 515zM168 707q0 -256 153.5 -433.5t376.5 -177.5q227 0 381 177.5t154 433.5q0 268 -170 442q-143 160 -364.5 160t-376 -175 t-154.5 -427zM422 1587q74 39 153 39q49 0 136 -29q70 -29 116 -28q66 0 123 37l31 -88q-72 -41 -154 -41q-92 0 -155 41h2q-43 16 -99 16q-63 0 -120 -35z" />
<glyph unicode="&#xd6;" horiz-adv-x="1413" d="M53 707q0 297 188.5 506.5t456.5 209.5q274 0 458.5 -207.5t184.5 -508.5q0 -319 -196 -527q-182 -199 -447 -198q-262 0 -453.5 210t-191.5 515zM168 707q0 -256 153.5 -433.5t376.5 -177.5q227 0 381 177.5t154 433.5q0 268 -170 442q-143 160 -364.5 160t-376 -175 t-154.5 -427zM498 1542.5q0 26.5 21.5 47t50 20.5t50 -20.5t21.5 -47t-21.5 -47t-50 -20.5t-50 20.5t-21.5 47zM764 1542.5q0 26.5 21.5 47t50 20.5t50 -20.5t21.5 -47t-21.5 -47t-50 -20.5t-50 20.5t-21.5 47z" />
<glyph unicode="&#xd7;" horiz-adv-x="751" d="M68 426l213 215l-211 211l75 80l215 -213l213 213l80 -78l-215 -213l215 -215l-78 -78l-215 213l-215 -213z" />
<glyph unicode="&#xd8;" horiz-adv-x="1413" d="M53 707q0 297 188.5 506.5t456.5 209.5q94 0 193 -30q6 20 6 22h119l-23 -67q162 -96 255 -265.5t93 -375.5q0 -319 -196 -527q-182 -199 -447 -198q-90 0 -192 32q-2 -4 -2 -14h-123l22 61q-156 86 -253 260.5t-97 385.5zM168 707q0 -174 73.5 -317.5t198.5 -221.5 l410 1116q-66 25 -152 25q-221 0 -375.5 -175t-154.5 -427zM545 121q68 -25 153 -25q227 0 381 177.5t154 433.5q0 268 -170 442q-63 63 -109 90z" />
<glyph unicode="&#xd9;" horiz-adv-x="1224" d="M80 360v1055h119v-1055q14 -106 134 -185t279 -79q154 0 271.5 79t132.5 185v1055h112v-1055q-6 -156 -158.5 -267t-357.5 -111q-213 0 -367.5 111t-164.5 267zM344 1694h178l150 -201h-76z" />
<glyph unicode="&#xda;" horiz-adv-x="1224" d="M80 360v1055h119v-1055q14 -106 134 -185t279 -79q154 0 271.5 79t132.5 185v1055h112v-1055q-6 -156 -158.5 -267t-357.5 -111q-213 0 -367.5 111t-164.5 267zM561 1493l152 201h176l-250 -201h-78z" />
<glyph unicode="&#xdb;" horiz-adv-x="1224" d="M371 1618l234 231l235 -233l-72 -70l-163 166l-166 -166zM80 360v1055h119v-1055q14 -106 134 -185t279 -79q154 0 271.5 79t132.5 185v1055h112v-1055q-6 -156 -158.5 -267t-357.5 -111q-213 0 -367.5 111t-164.5 267z" />
<glyph unicode="&#xdc;" horiz-adv-x="1224" d="M80 360v1055h119v-1055q14 -106 134 -185t279 -79q154 0 271.5 79t132.5 185v1055h112v-1055q-6 -156 -158.5 -267t-357.5 -111q-213 0 -367.5 111t-164.5 267zM403 1540q0 27 21.5 47.5t50.5 20.5t50.5 -20.5t21.5 -47.5t-21.5 -47t-50.5 -20t-50.5 20t-21.5 47z M670 1540q0 27 21.5 47.5t50 20.5t50 -20.5t21.5 -47.5t-21.5 -47t-50 -20t-50 20t-21.5 47z" />
<glyph unicode="&#xdd;" horiz-adv-x="1394" d="M51 1415h150l487 -667l494 667h147l-581 -778v-637h-115v637zM664 1493l151 201h176l-250 -201h-77z" />
<glyph unicode="&#xde;" horiz-adv-x="1095" d="M119 -393v1810h112v-438q119 70 283 70q207 -4 352.5 -159t145.5 -372q0 -223 -145.5 -379.5t-352.5 -156.5q-129 0 -285 69v-444h-110zM225 836l6 -633q-2 -27 35 -51.5t103.5 -40t144.5 -17.5q158 4 270.5 127t112.5 295q0 168 -113.5 293t-269.5 125 q-106 0 -190.5 -29.5t-98.5 -68.5z" />
<glyph unicode="&#xdf;" horiz-adv-x="1064" d="M100 -344v1749h455q156 -2 267.5 -106.5t111.5 -245.5q0 -96 -50 -176t-132 -132q96 -49 153.5 -141t57.5 -201q0 -162 -118 -279.5t-290 -119.5h-176l-107 107h283q123 6 209 92t86 200.5t-92 197.5t-238 91h-307v-1036h-113zM213 803h342q113 4 189.5 74.5t76.5 175.5 q0 96 -76.5 166.5t-189.5 76.5h-342v-493z" />
<glyph unicode="&#xe0;" horiz-adv-x="831" d="M74 295q0 135 102.5 226t245.5 91h213v29q0 117 -55.5 199t-143.5 84q-129 0 -241 -33l-27 106q133 39 270 39q123 -2 212 -105.5t98 -248.5v-20q-4 -172 -5 -336q0 -291 33 -326h-141v61q-98 -82 -227 -81q-137 0 -235.5 92t-98.5 223zM152 1303h178l149 -201h-76z M186 295q0 -84 64.5 -142.5t157.5 -58.5q94 0 160.5 58.5t66.5 142.5v207h-213q-98 0 -167 -58.5t-69 -148.5z" />
<glyph unicode="&#xe1;" horiz-adv-x="831" d="M74 295q0 135 102.5 226t245.5 91h213v29q0 117 -55.5 199t-143.5 84q-129 0 -241 -33l-27 106q133 39 270 39q123 -2 212 -105.5t98 -248.5v-20q-4 -172 -5 -336q0 -291 33 -326h-141v61q-98 -82 -227 -81q-137 0 -235.5 92t-98.5 223zM186 295q0 -84 64.5 -142.5 t157.5 -58.5q94 0 160.5 58.5t66.5 142.5v207h-213q-98 0 -167 -58.5t-69 -148.5zM340 1102l152 201h176l-250 -201h-78z" />
<glyph unicode="&#xe2;" horiz-adv-x="831" d="M74 295q0 135 102.5 226t245.5 91h213v29q0 117 -55.5 199t-143.5 84q-129 0 -241 -33l-27 106q133 39 270 39q123 -2 212 -105.5t98 -248.5v-20q-4 -172 -5 -336q0 -291 33 -326h-141v61q-98 -82 -227 -81q-137 0 -235.5 92t-98.5 223zM176 1145l234 231l235 -233 l-72 -70l-163 166l-166 -166zM186 295q0 -84 64.5 -142.5t157.5 -58.5q94 0 160.5 58.5t66.5 142.5v207h-213q-98 0 -167 -58.5t-69 -148.5z" />
<glyph unicode="&#xe3;" horiz-adv-x="831" d="M80 309q0 135 102.5 226.5t245.5 91.5h213v28q0 117 -55.5 199t-143.5 84q-129 0 -241 -33l-27 107q133 39 270 39q123 -2 212 -105.5t98 -249.5v-20q-4 -172 -4 -336q0 -291 32 -326h-141v62q-98 -82 -227 -82q-137 0 -235.5 92t-98.5 223zM115 1184q90 61 194 61 q41 0 94.5 -16.5t75.5 -16.5q102 0 162 54l39 -80q-80 -63 -193 -64q-63 0 -112 23l2 -2q-35 10 -66 10q-92 0 -149 -51zM193 309q0 -84 64.5 -142t156.5 -58q94 0 160.5 58t66.5 142v207h-213q-98 0 -166.5 -58.5t-68.5 -148.5z" />
<glyph unicode="&#xe4;" horiz-adv-x="831" d="M80 309q0 135 102.5 226.5t245.5 91.5h213v28q0 117 -55.5 199t-143.5 84q-129 0 -241 -33l-27 107q133 39 270 39q123 -2 212 -105.5t98 -249.5v-20q-4 -172 -4 -336q0 -291 32 -326h-141v62q-98 -82 -227 -82q-137 0 -235.5 92t-98.5 223zM193 309q0 -84 64.5 -142 t156.5 -58q94 0 160.5 58t66.5 142v207h-213q-98 0 -166.5 -58.5t-68.5 -148.5zM225 1309q0 29 20.5 48t51.5 19q29 0 50.5 -20.5t21.5 -47t-21.5 -47t-50.5 -20.5q-31 0 -51.5 20.5t-20.5 47.5zM492 1308.5q0 26.5 21.5 47t50 20.5t50 -20.5t21.5 -47t-21.5 -47t-50 -20.5 t-50 20.5t-21.5 47z" />
<glyph unicode="&#xe5;" horiz-adv-x="831" d="M229 1364q0 90 61.5 150.5t153.5 60.5q86 0 144.5 -60.5t58.5 -150.5q0 -84 -59.5 -144.5t-143.5 -60.5q-92 0 -153.5 59.5t-61.5 145.5zM313 1364q0 -47 40 -86t91 -39q43 0 81 39t38 86q0 49 -38 91t-81 42q-51 0 -91 -41t-40 -92zM74 295q0 135 102.5 226t245.5 91 h213v29q0 117 -55.5 199t-143.5 84q-129 0 -241 -33l-27 106q133 39 270 39q123 -2 212 -105.5t98 -248.5v-20q-4 -172 -5 -336q0 -291 33 -326h-141v61q-98 -82 -227 -81q-137 0 -235.5 92t-98.5 223zM186 295q0 -84 64.5 -142.5t157.5 -58.5q94 0 160.5 58.5t66.5 142.5 v207h-213q-98 0 -167 -58.5t-69 -148.5z" />
<glyph unicode="&#xe6;" horiz-adv-x="1521" d="M78 295q0 131 98 224t238 93h215q2 8 6 27.5t4 26.5q-2 109 -59.5 181.5t-139.5 76.5q-129 0 -239 -33l-29 106q135 39 270 39q86 -2 158 -55t113 -141q57 92 141 145t178 53q172 0 290 -149.5t118 -368.5v-61h-692v-74q31 -125 116.5 -209t190.5 -84q109 0 264 78 l45 -98q-113 -61 -256 -88q-16 -2 -53 -2q-182 0 -305 149q4 -102 38 -131h-149v61q-98 -82 -225 -81q-139 0 -237.5 92t-98.5 223zM193 295q0 -84 63 -142.5t158 -58.5q92 0 158.5 58.5t66.5 142.5v57q-14 57 -16 121v29h-209q-92 0 -156.5 -60.5t-64.5 -146.5zM750 567 h579q-14 154 -98 255.5t-198.5 101.5t-197.5 -101.5t-85 -255.5z" />
<glyph unicode="&#xe7;" horiz-adv-x="1009" d="M70 510q0 217 144 371.5t349 154.5q211 0 363 -172l-78 -78q-127 137 -284.5 137.5t-269.5 -120.5t-112 -293q0 -174 112 -295t269.5 -121t276.5 129l80 -78q-135 -145 -324 -163l-10 -29q33 -10 66.5 -46t33.5 -77q0 -68 -113 -137l-98 78q39 4 77 19t38 36q0 57 -86 57 q-2 0 -6 -2h-4h-23l4 109q-174 35 -289.5 180t-115.5 340z" />
<glyph unicode="&#xe8;" horiz-adv-x="933" d="M51 473v37q0 217 121 372.5t291 155.5q172 0 288.5 -149.5t116.5 -368.5v-61h-702q10 -158 101 -261.5t218 -105.5q109 0 265 78l43 -98q-113 -61 -254 -88q-16 -2 -54 -2q-170 0 -296 142t-138 349zM168 567h592q-14 154 -98 255.5t-199 101.5q-109 0 -192 -102.5 t-103 -254.5zM211 1303h178l150 -201h-76z" />
<glyph unicode="&#xe9;" horiz-adv-x="933" d="M51 473v37q0 217 121 372.5t291 155.5q172 0 288.5 -149.5t116.5 -368.5v-61h-702q10 -158 101 -261.5t218 -105.5q109 0 265 78l43 -98q-113 -61 -254 -88q-16 -2 -54 -2q-170 0 -296 142t-138 349zM168 567h592q-14 154 -98 255.5t-199 101.5q-109 0 -192 -102.5 t-103 -254.5zM399 1102l152 201h176l-250 -201h-78z" />
<glyph unicode="&#xea;" horiz-adv-x="933" d="M51 473v37q0 217 121 372.5t291 155.5q172 0 288.5 -149.5t116.5 -368.5v-61h-702q10 -158 101 -261.5t218 -105.5q109 0 265 78l43 -98q-113 -61 -254 -88q-16 -2 -54 -2q-170 0 -296 142t-138 349zM168 567h592q-14 154 -98 255.5t-199 101.5q-109 0 -192 -102.5 t-103 -254.5zM227 1145l234 231l235 -233l-71 -70l-164 166l-166 -166z" />
<glyph unicode="&#xeb;" horiz-adv-x="933" d="M51 473v37q0 217 121 372.5t291 155.5q172 0 288.5 -149.5t116.5 -368.5v-61h-702q10 -158 101 -261.5t218 -105.5q109 0 265 78l43 -98q-113 -61 -254 -88q-16 -2 -54 -2q-170 0 -296 142t-138 349zM168 567h592q-14 154 -98 255.5t-199 101.5q-109 0 -192 -102.5 t-103 -254.5zM258 1308.5q0 26.5 21.5 47t50 20.5t50 -20.5t21.5 -47t-21.5 -47t-50 -20.5t-50 20.5t-21.5 47zM524 1308.5q0 26.5 21.5 47t50.5 20.5t50.5 -20.5t21.5 -47t-21.5 -47t-50.5 -20.5t-50.5 20.5t-21.5 47z" />
<glyph unicode="&#xec;" horiz-adv-x="432" d="M-2 1317h178l150 -201h-76zM180 0v1024h109v-1024h-109z" />
<glyph unicode="&#xed;" horiz-adv-x="432" d="M82 1116l151 201h177l-250 -201h-78zM121 0v1024h110v-1024h-110z" />
<glyph unicode="&#xee;" horiz-adv-x="362" d="M-51 1159l233 232l236 -234l-72 -70l-164 166l-166 -166zM121 0v1024h108v-1024h-108z" />
<glyph unicode="&#xef;" horiz-adv-x="362" d="M12 1308.5q0 26.5 21.5 47t50.5 20.5t50.5 -20.5t21.5 -47t-21.5 -47t-50.5 -20.5t-50.5 20.5t-21.5 47zM121 0v1024h108v-1024h-108zM201 1309q0 29 20.5 48t50.5 19q29 0 50.5 -20.5t21.5 -47t-21.5 -47t-50.5 -20.5q-31 0 -51 20.5t-20 47.5z" />
<glyph unicode="&#xf0;" horiz-adv-x="1001" d="M72 973v14q0 176 125 302t303 126q170 0 294 -124t138 -298q6 -86 6 -280v-54q0 -178 -25 -307q-31 -162 -157.5 -264t-292.5 -102q-98 0 -192.5 49t-159.5 131l102 84q104 -150 264 -150q125 0 216 79t118 200q23 152 23 313v25q-61 -70 -150.5 -112t-187.5 -42 q-170 0 -296 120t-128 290zM178 977q8 -127 100.5 -215t217.5 -88q135 0 229 92t94 225q0 125 -96 217t-221 92q-135 0 -229.5 -96t-94.5 -227z" />
<glyph unicode="&#xf1;" horiz-adv-x="886" d="M47 1030h141v-102q104 127 265 127q143 0 244.5 -109.5t105.5 -269.5l4 -662h-113v662q-2 113 -75.5 189.5t-176.5 76.5q-88 0 -159.5 -69.5t-94.5 -167.5v-691h-110v918q0 67 -31 98zM141 1276q80 55 193 55q35 0 98 -18q53 -16 82 -17q86 0 150 54l43 -86 q-84 -57 -195 -58q-70 0 -113 25l2 -2q-31 12 -73 12q-70 0 -148 -51z" />
<glyph unicode="&#xf2;" horiz-adv-x="1079" d="M39 506q0 219 141.5 374.5t340 155.5t337.5 -155.5t139 -374.5q0 -217 -139 -371.5t-337.5 -154.5t-340 154.5t-141.5 371.5zM152 506q0 -170 107.5 -292t260.5 -122q150 0 257.5 122t107.5 292q0 174 -106.5 296t-258.5 122q-154 0 -261 -122t-107 -296zM285 1303h178 l149 -201h-75z" />
<glyph unicode="&#xf3;" horiz-adv-x="1079" d="M39 506q0 219 141.5 374.5t340 155.5t337.5 -155.5t139 -374.5q0 -217 -139 -371.5t-337.5 -154.5t-340 154.5t-141.5 371.5zM152 506q0 -170 107.5 -292t260.5 -122q150 0 257.5 122t107.5 292q0 174 -106.5 296t-258.5 122q-154 0 -261 -122t-107 -296zM485 1102 l152 201h176l-250 -201h-78z" />
<glyph unicode="&#xf4;" horiz-adv-x="1050" d="M39 506q0 219 141.5 374.5t340 155.5t337.5 -155.5t139 -374.5q0 -217 -139 -371.5t-337.5 -154.5t-340 154.5t-141.5 371.5zM152 506q0 -170 107.5 -292t260.5 -122q150 0 257.5 122t107.5 292q0 174 -106.5 296t-258.5 122q-154 0 -261 -122t-107 -296zM287 1145 l233 231l236 -233l-72 -70l-164 166l-166 -166z" />
<glyph unicode="&#xf5;" horiz-adv-x="1050" d="M39 506q0 219 141.5 374.5t340 155.5t337.5 -155.5t139 -374.5q0 -217 -139 -371.5t-337.5 -154.5t-340 154.5t-141.5 371.5zM152 506q0 -170 107.5 -292t260.5 -122q150 0 257.5 122t107.5 292q0 174 -106.5 296t-258.5 122q-154 0 -261 -122t-107 -296zM254 1262 q74 39 154 38q49 0 135 -28q70 -29 116 -29q66 0 123 37l31 -88q-72 -41 -154 -41q-92 0 -155 41h2q-43 16 -98 16q-63 0 -121 -34z" />
<glyph unicode="&#xf6;" horiz-adv-x="1079" d="M39 506q0 219 141.5 374.5t340 155.5t337.5 -155.5t139 -374.5q0 -217 -139 -371.5t-337.5 -154.5t-340 154.5t-141.5 371.5zM152 506q0 -170 107.5 -292t260.5 -122q150 0 257.5 122t107.5 292q0 174 -106.5 296t-258.5 122q-154 0 -261 -122t-107 -296zM342 1308.5 q0 26.5 21.5 47t50 20.5t50 -20.5t21.5 -47t-21.5 -47t-50 -20.5t-50 20.5t-21.5 47zM608 1308.5q0 26.5 21.5 47t50.5 20.5t50.5 -20.5t21.5 -47t-21.5 -47t-50.5 -20.5t-50.5 20.5t-21.5 47z" />
<glyph unicode="&#xf7;" horiz-adv-x="870" d="M70 559v111h714v-111h-714zM346 279v155h156v-155h-156zM346 770v156h156v-156h-156z" />
<glyph unicode="&#xf8;" horiz-adv-x="1050" d="M39 506q0 219 141.5 374.5t339.5 155.5q201 0 352 -174l-86 -74q-115 135 -266 136q-154 0 -261 -122t-107 -296q0 -117 49 -213l-84 -74q-78 144 -78 287zM145 178l82 74q121 -160 293 -160q150 0 257.5 122t107.5 292q0 127 -72 244l88 73q96 -154 96 -317 q0 -217 -139 -371.5t-338 -154.5q-225 -1 -375 198z" />
<glyph unicode="&#xf9;" horiz-adv-x="921" d="M88 367v653h111v-647l2 -11q4 -109 78.5 -187.5t175.5 -78.5q90 0 159.5 71t87.5 167v690h111v-913q0 -33 10.5 -67t20.5 -44h-142v109q-111 -127 -262 -127q-141 0 -241.5 109.5t-104.5 266.5q-2 5 -6 9zM209 1303h178l150 -201h-76z" />
<glyph unicode="&#xfa;" horiz-adv-x="921" d="M88 367v653h111v-647l2 -11q4 -109 78.5 -187.5t175.5 -78.5q90 0 159.5 71t87.5 167v690h111v-913q0 -33 10.5 -67t20.5 -44h-142v109q-111 -127 -262 -127q-141 0 -241.5 109.5t-104.5 266.5q-2 5 -6 9zM377 1102l151 201h177l-250 -201h-78z" />
<glyph unicode="&#xfb;" horiz-adv-x="921" d="M88 367v653h111v-647l2 -11q4 -109 78.5 -187.5t175.5 -78.5q90 0 159.5 71t87.5 167v690h111v-913q0 -33 10.5 -67t20.5 -44h-142v109q-111 -127 -262 -127q-141 0 -241.5 109.5t-104.5 266.5q-2 5 -6 9zM221 1145l234 231l235 -233l-72 -70l-163 166l-166 -166z" />
<glyph unicode="&#xfc;" horiz-adv-x="921" d="M88 367v653h111v-647l2 -11q4 -109 78.5 -187.5t175.5 -78.5q90 0 159.5 71t87.5 167v690h111v-913q0 -33 10.5 -67t20.5 -44h-142v109q-111 -127 -262 -127q-141 0 -241.5 109.5t-104.5 266.5q-2 5 -6 9zM252 1308.5q0 26.5 21.5 47t50 20.5t50 -20.5t21.5 -47 t-21.5 -47t-50 -20.5t-50 20.5t-21.5 47zM518 1308.5q0 26.5 21.5 47t50 20.5t50.5 -20.5t22 -47t-22 -47t-50.5 -20.5t-50 20.5t-21.5 47z" />
<glyph unicode="&#xfd;" horiz-adv-x="1095" d="M98 -387l17 115q16 -16 75 -17q70 0 132.5 46t93.5 130l78 193l-390 956h119l326 -815l323 815h119l-389 -958l2 2l-42 -108q-32 -81 -46 -126q-41 -113 -135 -179t-195 -66q-45 0 -88 12zM506 1102l151 201h177l-250 -201h-78z" />
<glyph unicode="&#xfe;" horiz-adv-x="1058" d="M119 -391v1798h112v-434q121 68 281 67q207 -4 350.5 -157.5t143.5 -368.5q0 -221 -144.5 -376.5t-349.5 -155.5q-127 0 -283 69v-442h-110zM225 829l6 -628q-2 -27 35 -51.5t102.5 -39t143.5 -16.5q156 4 268.5 126t112.5 292q0 166 -113.5 290t-267.5 124 q-106 0 -188.5 -29t-98.5 -68z" />
<glyph unicode="&#xff;" horiz-adv-x="1095" d="M98 -387l17 115q16 -16 75 -17q70 0 132.5 46t93.5 130l78 193l-390 956h119l326 -815l323 815h119l-389 -958l2 2l-42 -108q-32 -81 -46 -126q-41 -113 -135 -179t-195 -66q-45 0 -88 12zM360 1308.5q0 26.5 21.5 47t50.5 20.5t50.5 -20.5t21.5 -47t-21.5 -47 t-50.5 -20.5t-50.5 20.5t-21.5 47zM627 1308.5q0 26.5 21.5 47t50 20.5t50 -20.5t21.5 -47t-21.5 -47t-50 -20.5t-50 20.5t-21.5 47z" />
<glyph unicode="&#x152;" horiz-adv-x="2162" d="M57 707q0 297 188.5 506.5t454.5 209.5q354 0 535 -307v299h829v-108h-716v-498h612v-113h-612v-583h716v-113h-829v293q-45 -70 -86 -113q-182 -199 -449 -198q-262 0 -452.5 210t-190.5 515zM172 707q0 -256 152.5 -433.5t375.5 -177.5q211 0 361.5 162t173.5 395v105 q-18 236 -168 391q-143 160 -367 160q-219 0 -373.5 -175t-154.5 -427z" />
<glyph unicode="&#x153;" horiz-adv-x="1802" d="M45 506q0 219 141.5 374.5t339.5 155.5q133 0 248 -78.5t176 -205.5q53 127 151.5 206.5t213.5 79.5q172 0 289.5 -149.5t117.5 -368.5v-61h-704q10 -158 101 -261.5t218 -105.5q109 0 265 78l45 -98q-113 -61 -256 -88q-16 -2 -54 -2q-123 0 -226 77.5t-159 206.5 q-61 -127 -175.5 -206.5t-250.5 -79.5q-199 0 -340 154.5t-141 371.5zM156 506q0 -170 108.5 -292t261.5 -122q150 0 256.5 122t106.5 292q0 174 -106.5 296t-256.5 122q-154 0 -262 -122t-108 -296zM1020 567h592q-14 154 -98 255.5t-199 101.5q-109 0 -192 -102.5 t-103 -254.5z" />
<glyph unicode="&#x178;" horiz-adv-x="1394" d="M51 1415h150l487 -667l494 667h147l-581 -778v-637h-115v637zM487 1519.5q0 26.5 21.5 47t50.5 20.5t50.5 -20.5t21.5 -47t-21.5 -47t-50.5 -20.5t-50.5 20.5t-21.5 47zM754 1519.5q0 26.5 21.5 47t50 20.5t50 -20.5t21.5 -47t-21.5 -47t-50 -20.5t-50 20.5t-21.5 47z " />
<glyph unicode="&#x2c6;" horiz-adv-x="548" d="M47 1145l234 231l235 -233l-72 -70l-163 166l-166 -166z" />
<glyph unicode="&#x2dc;" horiz-adv-x="684" d="M55 1262q74 39 154 38q49 0 135 -28q70 -29 117 -29q66 0 123 37l30 -88q-72 -41 -153 -41q-92 0 -156 41h2q-43 16 -98 16q-63 0 -121 -34z" />
<glyph unicode="&#x2000;" horiz-adv-x="923" />
<glyph unicode="&#x2001;" horiz-adv-x="1849" />
<glyph unicode="&#x2002;" horiz-adv-x="923" />
<glyph unicode="&#x2003;" horiz-adv-x="1849" />
<glyph unicode="&#x2004;" horiz-adv-x="616" />
<glyph unicode="&#x2005;" horiz-adv-x="460" />
<glyph unicode="&#x2006;" horiz-adv-x="307" />
<glyph unicode="&#x2007;" horiz-adv-x="307" />
<glyph unicode="&#x2008;" horiz-adv-x="229" />
<glyph unicode="&#x2009;" horiz-adv-x="368" />
<glyph unicode="&#x200a;" horiz-adv-x="102" />
<glyph unicode="&#x2010;" horiz-adv-x="862" d="M76 545v110h715v-110h-715z" />
<glyph unicode="&#x2011;" horiz-adv-x="862" d="M76 545v110h715v-110h-715z" />
<glyph unicode="&#x2012;" horiz-adv-x="862" d="M76 545v110h715v-110h-715z" />
<glyph unicode="&#x2013;" horiz-adv-x="851" d="M76 545v110h715v-110h-715z" />
<glyph unicode="&#x2014;" horiz-adv-x="1089" d="M78 545v110h942v-110h-942z" />
<glyph unicode="&#x2018;" horiz-adv-x="307" d="M57 1196l99 211l37 -18l-19 -156l55 -121l-110 -51z" />
<glyph unicode="&#x2019;" horiz-adv-x="325" d="M55 1118l66 139l-15 138l123 10l17 -143l-162 -172z" />
<glyph unicode="&#x201a;" horiz-adv-x="352" d="M63 -111l80 129v138h123v-148l-180 -153z" />
<glyph unicode="&#x201c;" horiz-adv-x="446" d="M59 1262l17 143l123 -10l-17 -138l66 -139l-27 -28zM205 1262l16 143l123 -10l-16 -138l65 -139l-26 -28z" />
<glyph unicode="&#x201d;" horiz-adv-x="485" d="M57 1118l66 139l-17 138l123 10l17 -143l-162 -172zM203 1118l65 139l-16 138l123 10l16 -143l-162 -172z" />
<glyph unicode="&#x201e;" horiz-adv-x="473" d="M45 -109l78 132l-4 137h125v-146l-176 -155zM193 -111l77 131v138h121v-148l-178 -155z" />
<glyph unicode="&#x2022;" horiz-adv-x="428" d="M78 778q0 55 42 97.5t97 42.5q53 0 96 -42t43 -98q0 -51 -43 -92t-96 -41q-55 0 -97 41t-42 92z" />
<glyph unicode="&#x2026;" horiz-adv-x="890" d="M78 0v156h155v-156h-155zM367 0v156h155v-156h-155zM655 0v156h156v-156h-156z" />
<glyph unicode="&#x202f;" horiz-adv-x="368" />
<glyph unicode="&#x2039;" horiz-adv-x="720" d="M80 508l506 510l80 -78l-428 -432l428 -422l-78 -82z" />
<glyph unicode="&#x203a;" horiz-adv-x="702" d="M80 86l430 422l-430 432l82 78l504 -510l-506 -504z" />
<glyph unicode="&#x205f;" horiz-adv-x="460" />
<glyph unicode="&#x20ac;" horiz-adv-x="1525" d="M78 520v113h198q0 2 -1 10t-1 12q-2 12 -2 39q0 16 7 97v4h-201v112h223q66 225 242 365.5t399 140.5q285 0 506 -235l-80 -82q-186 203 -426 202q-176 0 -319.5 -108.5t-202.5 -282.5h676v-112h-703q-8 -41 -8 -101q0 -23 2 -35q0 -8 1 -14t1 -12h707v-113h-682 q53 -182 201.5 -303t326.5 -121q242 0 426 211l80 -90q-221 -236 -506 -235q-236 0 -415 151.5t-234 386.5h-215z" />
<glyph unicode="&#x2122;" horiz-adv-x="854" d="M53 1303v86h328v-86h-117v-347h-92v347h-119zM389 956v433h74l104 -175l62 109q4 8 19.5 31.5t21.5 34.5h71v-433h-88v238q-27 -41 -63 -107h-49l-62 107v-238h-90z" />
<glyph unicode="&#xe000;" horiz-adv-x="1025" d="M0 1025h1025v-1025h-1025v1025z" />
<glyph unicode="&#xfb01;" horiz-adv-x="1034" d="M68 889v112h147l-2 37v25q8 143 97 246.5t208 103.5q66 0 115 -6l-33 -113q-35 8 -82 9q-82 -4 -138 -80t-56 -183v-39h260v-1001h-109v889h-151v-889h-107v889h-149z" />
<glyph unicode="&#xfb02;" horiz-adv-x="1003" d="M66 889v112h149l-2 37v25q8 145 96 245.5t209 104.5h111v-1413h-115v889h-190v-889h-107v889h-151zM324 1001h190v302q-80 -6 -135 -81t-55 -182v-39zM514 1303v14l14 -14h-10h-4z" />
<glyph unicode="&#xfb03;" horiz-adv-x="1705" d="M1447 1309q0 29 20.5 48t51.5 19q29 0 50.5 -20.5t21.5 -47t-21.5 -47t-50.5 -20.5q-31 0 -51.5 20.5t-20.5 47.5zM1464 0v1024h108v-1024h-108zM740 889v112h147l-2 37v25q8 143 97 246.5t208 103.5q66 0 115 -6l-33 -113q-35 8 -82 9q-82 -4 -138 -80t-56 -183v-39h262 v-112h-262v-889h-107v889h-149zM68 889v112h147l-2 37v25q8 143 97 246.5t208 103.5q66 0 115 -6l-33 -113q-35 8 -82 9q-82 -4 -138 -80t-56 -183v-39h262v-112h-262v-889h-107v889h-149z" />
<glyph unicode="&#xfb04;" horiz-adv-x="1675" d="M1464 0v1405h110v-1405h-110zM740 889v112h147l-2 37v25q8 143 97 246.5t208 103.5q66 0 115 -6l-33 -113q-35 8 -82 9q-82 -4 -138 -80t-56 -183v-39h262v-112h-262v-889h-107v889h-149zM68 889v112h147l-2 37v25q8 143 97 246.5t208 103.5q66 0 115 -6l-33 -113 q-35 8 -82 9q-82 -4 -138 -80t-56 -183v-39h262v-112h-262v-889h-107v889h-149z" />
<glyph horiz-adv-x="526" />
</font>
</defs>
</svg>
