<?xml version="1.0" standalone="no"?>
<!DOCTYPE svg PUBLIC "-//W3C//DTD SVG 1.1//EN" "http://www.w3.org/Graphics/SVG/1.1/DTD/svg11.dtd" >
<svg xmlns="http://www.w3.org/2000/svg">
<metadata>
This is a custom SVG webfont generated by Font Squirrel.
Copyright   : Llicia gratu  Free License La Tipomatika
Designer    : La Tipomatika Digital Type Foundry
Foundry     : La Tipomatika
</metadata>
<defs>
<font id="webfontwZBJjlrS" horiz-adv-x="1220" >
<font-face units-per-em="2048" ascent="1638" descent="-410" />
<missing-glyph horiz-adv-x="526" />
<glyph unicode=" "  horiz-adv-x="526" />
<glyph unicode="&#x09;" horiz-adv-x="526" />
<glyph unicode="&#xa0;" horiz-adv-x="526" />
<glyph unicode="!" horiz-adv-x="360" d="M111 43q6 27 26.5 44t47 17t39 -17t7.5 -42v-2q-4 -25 -25.5 -43t-45.5 -18q-27 0 -40 18t-9 43zM156 197l256 1208h98l-256 -1208h-98z" />
<glyph unicode="&#x22;" horiz-adv-x="444" d="M319 1112l41 293h121l-12 -141l-125 -183zM469 1112l41 293h121l-13 -141l-124 -183z" />
<glyph unicode="#" horiz-adv-x="1462" d="M139 440l119 115h205l151 258h-397l117 115h344l227 383h119l-221 -383h446l226 383h118l-221 -383h242l-117 -115h-188l-154 -258h381l-121 -115h-328l-249 -440h-123l254 440h-451l-252 -440h-121l254 440h-260zM586 555h448l150 258h-447z" />
<glyph unicode="$" horiz-adv-x="954" d="M100 184l105 72q31 -63 92 -110.5t137 -51.5l117 551q-150 33 -224.5 138.5t-45.5 244.5q31 141 151.5 244.5t280.5 132.5l20 92h111l-19 -86q207 -6 318 -168l-107 -72q-76 123 -233 134l-121 -566q150 -35 228.5 -139t50.5 -242q-31 -141 -156 -244.5t-283 -125.5 l-24 -119h-111l25 115h-11q-104 10 -183 64t-118 136zM399 1036q-20 -92 30 -170t149 -104l112 532q-106 -25 -188.5 -96.5t-102.5 -161.5zM547 100q106 16 190 86t105 166q23 98 -29.5 177t-153.5 102z" />
<glyph unicode="&#x26;" horiz-adv-x="1222" d="M160 389q53 250 405 395q8 4 19.5 8.5t19.5 8.5q-4 4 -16 28q-76 102 -92.5 166t-1.5 127q25 117 134 204t251 87q133 0 201.5 -81t43.5 -197q-37 -180 -323 -322l-35 -16l225 -383q4 4 27 39q61 82 104 178l121 -27q-100 -188 -184 -282q0 -4 -12 -33q27 -61 43 -87 t59 -67l-29 -133q-74 51 -137 156q-8 16 -10 18l-19 31q-12 -12 -28 -25q-201 -186 -424 -182q-182 0 -279.5 114.5t-62.5 274.5zM295 399q-25 -113 39.5 -206t187.5 -93q86 -2 186.5 50.5t172.5 134.5v-2q6 12 16 18l-254 432l-25 -14q-286 -148 -323 -320zM621 1139 q-16 -84 38 -164l70 -109l21 11h-2q127 66 181 122t70 134q16 82 -24.5 137t-124.5 55q-78 0 -145.5 -54t-83.5 -132zM1047 287l2 -6l-2 8v-2z" />
<glyph unicode="'" horiz-adv-x="247" d="M268 1118l97 139l12 138l125 10l-15 -143l-196 -172z" />
<glyph unicode="(" horiz-adv-x="532" d="M209 590q55 266 171 493.5t247 341.5l22 -125q-96 -94 -182 -286.5t-135 -423.5q-55 -258 -44 -458t81 -284l-88 -108q-90 111 -110.5 337t38.5 513z" />
<glyph unicode=")" horiz-adv-x="503" d="M70 -152q104 84 201.5 286t152.5 456q49 233 44 424.5t-62 285.5l73 125q84 -115 103.5 -339t-35.5 -496q-59 -279 -178 -509.5t-254 -340.5z" />
<glyph unicode="*" horiz-adv-x="964" d="M352 1075l25 111h221l-125 157l94 80l125 -157l47 223h111l-47 -223l190 157l64 -77l-191 -158h224l-25 -113h-225l127 -160l-95 -75l-127 157l-47 -225h-110l47 221l-191 -153l-63 75l192 160h-221z" />
<glyph unicode="+" horiz-adv-x="925" d="M219 545l25 110h301l63 301h111l-64 -301h303l-24 -110h-303l-64 -303h-110l63 303h-301z" />
<glyph unicode="," horiz-adv-x="354" d="M39 -111l106 129l31 138h123l-33 -148l-213 -153z" />
<glyph unicode="-" horiz-adv-x="862" d="M190 545l25 110h715l-25 -110h-715z" />
<glyph unicode="." horiz-adv-x="296" d="M74 0l32 156h156l-33 -156h-155z" />
<glyph unicode="/" horiz-adv-x="774" d="M76 0l811 1405h119l-809 -1405h-121z" />
<glyph unicode="0" horiz-adv-x="1200" d="M227.5 698q63.5 295 261 505t410.5 210q215 0 321.5 -209t43 -506t-258 -506.5t-409.5 -209.5q-213 0 -322.5 210.5t-46 505.5zM340 698q-53 -252 29 -428t249 -176q170 0 326 176t209 428q53 250 -28 426t-251 176q-168 0 -324.5 -176t-209.5 -426z" />
<glyph unicode="1" horiz-adv-x="538" d="M307 1184l314 221h102l-297 -1405h-113l267 1255l-211 -147z" />
<glyph unicode="2" horiz-adv-x="972" d="M106 0l21 102l723 654q104 94 129 217q31 137 -48 232t-220 95q-133 0 -262 -102l-64 80q184 135 350 135q186 0 290.5 -129t64.5 -311q-37 -174 -183 -297l-620 -565h620l-22 -111h-779z" />
<glyph unicode="3" horiz-adv-x="882" d="M66 133l94 78q88 -123 241 -123q131 0 244 85t139 206q20 98 -52.5 179t-184.5 104h-197l25 110h198q127 8 229.5 85t125.5 179q25 111 -53 189t-209 78q-170 0 -297 -117l-62 82q168 145 381 145q180 0 285.5 -110.5t73.5 -266.5q-20 -100 -99.5 -186t-187.5 -135 q84 -53 122 -142.5t15 -193.5q-35 -168 -187.5 -285t-332.5 -117q-205 0 -311 156z" />
<glyph unicode="4" horiz-adv-x="968" d="M174 506l27 102l633 801l84 -53l-582 -738h369l63 306h113l-64 -306h197l-25 -112h-196l-107 -506h-113l107 506h-506z" />
<glyph unicode="5" horiz-adv-x="1032" d="M176 211l98 80q31 -84 96.5 -132t153.5 -48q143 0 268.5 116.5t160 282.5t-41 280.5t-219.5 114.5q-98 0 -191 -56t-155 -149h-106l198 705h762l-22 -113h-654q-10 -29 -53 -168l-70 -221q139 111 316 111q190 0 291.5 -147.5t56.5 -356.5q-45 -211 -209 -360.5 t-354 -149.5q-109 0 -196 57.5t-130 153.5z" />
<glyph unicode="6" horiz-adv-x="1036" d="M195 399q12 104 51 277l8 43q39 186 96 328q61 154 202.5 259t299.5 109q229 0 336 -192l-121 -66q-35 68 -97.5 107t-138.5 39q-119 0 -229 -82t-156 -205q-61 -156 -94 -322l-4 -16q150 152 354 162q178 0 284 -118t69 -296l-4 -18q-39 -178 -189.5 -301t-331.5 -123 q-170 0 -267 119.5t-68 297.5v-2zM305 401q-27 -127 48 -218t204 -91q131 0 243.5 92t139.5 219l4 19q23 131 -51 219t-205 88t-242.5 -97.5t-140.5 -230.5z" />
<glyph unicode="7" horiz-adv-x="907" d="M74 0l876 1292h-549l23 113h731l-952 -1405h-129z" />
<glyph unicode="8" horiz-adv-x="940" d="M141 395q23 111 103 209t184 154q-143 100 -102 297q31 147 160.5 252.5t281.5 105.5q156 0 242 -105.5t55 -252.5q-41 -201 -229 -297q86 -55 121.5 -151.5t11.5 -211.5q-37 -172 -183.5 -292.5t-320.5 -120.5q-170 0 -265.5 121.5t-58.5 291.5zM254 395 q-27 -121 43 -211t190 -90q127 0 235.5 89t135.5 212q27 125 -44 214t-198 89q-121 0 -228 -89t-134 -214zM436 1055q-20 -100 39.5 -173t163.5 -73q106 0 197.5 71.5t113.5 174.5q20 102 -39 173.5t-168 71.5q-104 0 -195.5 -71.5t-111.5 -173.5z" />
<glyph unicode="9" horiz-adv-x="1001" d="M145 166l119 84q76 -150 234 -150q125 0 232.5 79t160.5 200q53 150 88 313l6 25q-168 -154 -371 -154q-170 0 -270 120t-68 290l5 14q37 176 188.5 302t329.5 126q170 0 268 -124t76 -298q-16 -111 -56 -280l-10 -54q-37 -174 -90 -307q-63 -162 -212.5 -264 t-315.5 -102q-98 0 -181.5 49t-132.5 131zM385 977q-20 -127 53.5 -215t198.5 -88q135 0 249.5 92t141.5 225q27 125 -50 217t-202 92q-135 0 -248.5 -96t-142.5 -227z" />
<glyph unicode=":" horiz-adv-x="372" d="M111 0l32 156h156l-33 -156h-155zM295 868l33 156h155l-32 -156h-156z" />
<glyph unicode=";" horiz-adv-x="346" d="M16 -111l107 129l31 138h125l-33 -148l-215 -153zM295 868l33 156h153l-32 -156h-154z" />
<glyph unicode="&#x3c;" horiz-adv-x="675" d="M150 508l612 510l65 -78l-520 -432l338 -422l-96 -82z" />
<glyph unicode="=" horiz-adv-x="901" d="M217 399l25 115h694l-25 -115h-694zM299 784l25 117h694l-25 -117h-694z" />
<glyph unicode="&#x3e;" horiz-adv-x="688" d="M80 86l518 422l-336 432l96 78l398 -510l-613 -504z" />
<glyph unicode="?" horiz-adv-x="839" d="M322 649l20 101h203q113 2 205 80.5t116 191.5q25 117 -36.5 199t-172.5 82q-147 0 -270 -154l-63 80q158 184 356 184q156 0 243 -114.5t52 -276.5q-35 -156 -167 -269.5t-286 -113.5h-88l53 -639h-118zM364.5 -178.5q6.5 28.5 31 48t50.5 19.5q66 0 52 -67 q-6 -31 -27.5 -51.5t-52.5 -20.5q-27 0 -43.5 21.5t-10 50z" />
<glyph unicode="@" horiz-adv-x="1544" d="M233 664q68 324 311.5 536.5t561.5 212.5q256 0 404.5 -155.5t93.5 -417.5q-41 -195 -196 -366t-333 -193q-115 6 -141 51q-88 -57 -178 -58q-111 0 -171.5 80t-37.5 195q25 115 122 192.5t212 77.5h145q35 195 -39 195q-78 0 -137 -21l-29 -2l-4 117l27 2q72 23 170 23 q166 -6 125 -289h4l-68 -299q-4 -20 -12 -47q-18 -39 -11 -70t60 -31q45 0 124 56.5t134 134.5q29 43 60.5 121.5t44.5 132.5q39 182 -73 311t-329 129q-248 0 -450.5 -173t-257.5 -433q-55 -256 71.5 -399.5t411.5 -143.5q168 0 309 61.5t227 157.5h154l-18 -30 q-102 -135 -287.5 -227.5t-409.5 -92.5q-330 0 -494 172.5t-96 489.5zM645 548.5q-14 -69.5 25 -117.5t108 -48q68 0 127.5 48t73.5 118l35 162h-158q-74 0 -135.5 -46.5t-75.5 -116z" />
<glyph unicode="A" d="M51 0l819 1415h93l221 -1415h-117l-94 575h-469l-336 -575h-117zM569 688h387l-84 520z" />
<glyph unicode="B" horiz-adv-x="1048" d="M100 0l299 1415h457q158 -2 247 -107q67 -80 67 -180q0 -32 -7 -67q-20 -96 -87.5 -177t-160.5 -132q86 -51 123 -145q23 -58 23 -121q0 -38 -8 -78q-35 -164 -179.5 -283t-316.5 -121h2l-37 -4h-422zM236 113h344q125 6 230 92t130 203q6 28 6 54q0 79 -51 142 q-68 84 -190 92h-345zM383 809h344q115 4 208 74.5t116 177.5q5 23 5 45q0 68 -48 123q-63 72 -174 78h-345z" />
<glyph unicode="C" horiz-adv-x="1208" d="M201 707q61 289 295.5 502.5t500.5 213.5q125 0 231.5 -55t176.5 -151l-94 -76q-127 170 -336 170q-217 0 -411.5 -177.5t-248.5 -426.5q-17 -80 -17 -154q0 -156 78 -278q114 -179 339 -179q201 0 405 168l62 -76q-240 -207 -490 -206q-258 0 -405 215 q-104 152 -104 343q0 80 18 167z" />
<glyph unicode="D" horiz-adv-x="1177" d="M68 0l299 1415h526q207 -2 308 -208q63 -128 63 -289q0 -98 -23 -207q-61 -291 -247.5 -497t-395.5 -214h-530zM203 113q70 0 211 2t209 2q158 4 306 178t199 416q19 102 19 190q0 56 -7 107q-19 131 -92 211.5t-178 83.5h-413z" />
<glyph unicode="E" horiz-adv-x="993" d="M82 0l299 1415h827l-22 -108h-715l-106 -498h610l-23 -113h-610l-125 -583h715l-23 -113h-827z" />
<glyph unicode="F" horiz-adv-x="997" d="M90 0l299 1415h828l-23 -106h-715l-106 -500h610l-22 -113h-611l-147 -696h-113z" />
<glyph unicode="G" horiz-adv-x="1236" d="M193 700q63 299 298.5 511t501.5 212q256 0 410 -206l-94 -78q-127 170 -340 170q-221 0 -417 -177.5t-249 -431.5q-16 -78 -16 -148q0 -159 83 -283q120 -179 341 -179q186 0 362 135l80 377h-383l23 109h495l-110 -521l-7 -16q-229 -193 -483 -192q-176 0 -304 96 t-180 262q-29 93 -29 195q0 79 18 165z" />
<glyph unicode="H" horiz-adv-x="1142" d="M92 0l299 1415h113l-129 -606h737l129 606h111l-299 -1415h-111l148 696h-738l-147 -696h-113z" />
<glyph unicode="I" horiz-adv-x="282" d="M88 0l299 1415h113l-299 -1415h-113z" />
<glyph unicode="J" horiz-adv-x="624" d="M70 80l90 78q43 -63 94 -64q66 0 127 73t86 181l225 1067h115l-225 -1063q-33 -152 -136.5 -261t-214.5 -109q-93 0 -161 98z" />
<glyph unicode="K" horiz-adv-x="1193" d="M82 0l299 1415h113l-156 -731l782 731h150l-660 -616l514 -799h-145l-461 713l-215 -201l-108 -512h-113z" />
<glyph unicode="L" horiz-adv-x="927" d="M82 0l299 1415h111l-277 -1302h678l-23 -113h-788z" />
<glyph unicode="M" horiz-adv-x="1275" d="M61 0l299 1415h107l293 -760l602 760h108l-299 -1415h-114l250 1184l-549 -692h-70l-264 692l-250 -1184h-113z" />
<glyph unicode="N" horiz-adv-x="1099" d="M88 0l299 1415h105l446 -1179l250 1179h112l-299 -1415h-106l-444 1186l-252 -1186h-111z" />
<glyph unicode="O" horiz-adv-x="1413" d="M203 707q63 297 295.5 506.5t500.5 209.5q274 0 415 -208q97 -143 97 -330q0 -85 -20 -178q-68 -319 -309 -527q-225 -199 -488 -198q-264 0 -410 209q-101 145 -102 336q1 86 21 180zM317 707q-17 -81 -16 -155q0 -158 78 -279q115 -177 338 -177q227 0 419.5 177.5 t245.5 433.5q16 80 17 150q0 169 -92 292q-113 160 -332 160q-221 0 -413 -175t-245 -427z" />
<glyph unicode="P" horiz-adv-x="983" d="M100 0l299 1415h412q168 0 265 -104q74 -79 74 -183q0 -33 -7 -67q-35 -154 -175.5 -260.5t-308.5 -106.5h-301l-147 -694h-111zM381 807h301q121 0 223.5 72.5t124.5 181.5q5 22 5 43q0 73 -56 130q-72 73 -195 73h-297z" />
<glyph unicode="Q" horiz-adv-x="1361" d="M229 754q59 283 276.5 476t461.5 193q246 0 382 -194q95 -135 94 -313q0 -77 -18 -162q-61 -287 -292 -484q-160 -141 -357 -176v-13q0 -45 12 -75q14 -35 39 -35q33 0 70 56l66 -70q-92 -92 -160 -92q-63 0 -101 63q-33 57 -33 139q0 9 1 19q-236 14 -367 207 q-91 134 -91 304q0 75 17 157zM334 754q-16 -75 -16 -143q0 -139 67 -250q100 -165 297 -175q-12 57 -74 58h-4l21 100h6q71 0 117 -41q47 -43 47 -108q180 41 329.5 197.5t192.5 361.5q16 74 16 141q0 157 -88 274q-111 154 -299 154q-203 0 -383 -166.5t-229 -402.5z" />
<glyph unicode="R" horiz-adv-x="970" d="M80 0l299 1415h412q170 0 267 -103q73 -77 73 -181q0 -35 -9 -72q-31 -150 -172 -256.5t-311 -106.5h-170l467 -696h-145l-455 676l-143 -676h-113zM362 809h300q121 0 224 72.5t124 177.5q5 24 5 47q0 73 -56 129q-73 74 -195 74h-295z" />
<glyph unicode="S" horiz-adv-x="993" d="M119 186l104 72q74 -164 277 -164q125 0 233.5 76t130.5 184q6 26 6 51q0 74 -51 137q-68 83 -190 101q-170 20 -264 133q-71 85 -71 191q0 35 7 71q35 164 186.5 273.5t335.5 109.5q229 0 346 -168l-108 -73q-80 135 -260 135q-127 0 -242 -79t-139 -189q-6 -28 -6 -54 q0 -80 53 -144q70 -85 199 -95q168 -23 258 -136q67 -84 67 -186q0 -35 -8 -72q-33 -158 -182.5 -268t-327.5 -110q-125 0 -218 56t-136 148z" />
<glyph unicode="T" horiz-adv-x="1177" d="M354 1307l23 108h1018l-23 -108h-450l-277 -1307h-113l277 1307h-455z" />
<glyph unicode="U" horiz-adv-x="1224" d="M156 360l223 1055h119l-224 -1055q-1 -10 0 -19q0 -95 94 -166q103 -79 263 -79q154 0 289 79t172 185l223 1055h112l-223 -1055q-41 -156 -216 -267t-380 -111q-213 0 -344 111q-112 95 -112 223q1 21 4 44z" />
<glyph unicode="V" horiz-adv-x="1308" d="M375 1415h117l196 -1235l719 1235h119l-821 -1415h-109z" />
<glyph unicode="W" horiz-adv-x="1873" d="M383 1415h119l196 -1237l318 553l-105 684h117l88 -561l50 -308l59 -366l717 1235h120l-819 -1415h-113l-90 561l-323 -561h-111z" />
<glyph unicode="X" horiz-adv-x="1107" d="M59 0l576 723l-258 692h127l227 -590l475 590h129l-561 -704l262 -711h-129l-233 610l-488 -610h-127z" />
<glyph unicode="Y" horiz-adv-x="1394" d="M350 1415h150l346 -667l635 667h147l-745 -778l-135 -637h-115l135 637z" />
<glyph unicode="Z" horiz-adv-x="1122" d="M49 0l1090 1303h-742l23 112h942l-1086 -1302h728l-23 -113h-932z" />
<glyph unicode="[" horiz-adv-x="430" d="M215 666l23 110h55q31 0 57.5 22.5t32.5 53.5l98 461q14 41 62.5 66.5t103.5 25.5l-24 -115q-33 0 -33 6l-101 -471q-41 -70 -102 -75l-10 -56q63 -10 69 -73l-108 -512q0 2 35 2l-23 -111q-49 0 -92 31.5t-33 77.5l103 481q6 33 -10.5 54.5t-47.5 21.5h-55z" />
<glyph unicode="\" horiz-adv-x="759" d="M373 1405h119l217 -1405h-121z" />
<glyph unicode="]" horiz-adv-x="374" d="M47 0l23 111q27 0 39 4l108 503q31 72 96 76q2 12 15 56q-63 14 -68 75l98 465h-39l25 115q59 0 94 -26.5t35 -65.5v-13l-94 -448q-6 -33 7 -54.5t44 -21.5h55l-22 -110h-55q-31 0 -54.5 -21.5t-29.5 -54.5l-103 -481q-10 -45 -65.5 -77t-108.5 -32z" />
<glyph unicode="^" horiz-adv-x="1128" d="M244 907l616 504l395 -506l-98 -80l-330 428l-524 -428z" />
<glyph unicode="_" horiz-adv-x="1050" d="M76 0l22 111h867l-23 -111h-866z" />
<glyph unicode="`" horiz-adv-x="417" d="M305 1303h178l107 -201h-76z" />
<glyph unicode="a" horiz-adv-x="831" d="M135 295q29 135 151 226t265 91h213l6 29q10 46 10 86q0 62 -23 113q-38 82 -126 84q-129 0 -248 -33l-4 106q143 39 278 39q123 -2 190 -105q50 -77 50 -178q0 -34 -6 -71l-4 -20q-41 -172 -76 -336q-42 -207 -42 -285q0 -32 7 -41h-141l12 61q-117 -82 -246 -81 q-137 0 -215 92q-58 69 -58 159q0 31 7 64zM248 295q-5 -22 -5 -42q0 -57 39 -100q52 -58 144 -59q94 0 173 58.5t97 142.5l45 207h-213q-98 0 -179 -58.5t-101 -148.5z" />
<glyph unicode="b" horiz-adv-x="1071" d="M84 0q31 35 74 201l256 1204h112l-92 -432q127 63 295 63q203 0 314 -155q78 -109 79 -249q0 -59 -14 -122q-45 -217 -221 -371.5t-383 -158.5q-182 10 -273 67l-8 -47h-139zM264 201q-8 -43 69 -74t195 -35q156 4 295.5 126t173.5 292q10 47 10 91q0 110 -62 199 q-87 124 -240 124q-106 0 -195.5 -29t-112.5 -68z" />
<glyph unicode="c" horiz-adv-x="978" d="M147 508q45 217 223.5 372.5t379.5 155.5q207 0 325 -170l-96 -82q-88 139 -254 140q-158 0 -294 -121t-173 -295q-10 -49 -10 -95q0 -111 60 -197q85 -122 241 -122q160 0 305 133l66 -77q-199 -168 -394 -168q-201 0 -312 155q-80 111 -80 252q0 57 13 119z" />
<glyph unicode="d" horiz-adv-x="1093" d="M207 516q45 215 222 366.5t380 153.5q174 0 266 -65l92 434h111l-254 -1200q-2 -6 -4 -18.5t-6 -42t-6 -55.5t1 -50.5t11 -32.5h-150l11 45q-125 -55 -295 -65q-203 4 -314 158q-79 110 -78 252q0 57 13 120zM315 516q-10 -49 -10 -95q0 -111 61 -197q85 -122 246 -128 q117 6 205 38t96 71l134 624q-4 39 -78 67t-185 28q-160 -4 -297 -124t-172 -284z" />
<glyph unicode="e" horiz-adv-x="933" d="M152 473l6 37q47 219 201.5 373.5t322.5 154.5q172 0 257 -149q55 -96 55 -221q0 -69 -17 -148l-12 -61h-703q-6 -39 -5 -75q0 -109 51 -186q69 -103 196 -106q111 0 280 78l23 -98q-129 -63 -272 -88q-16 -2 -54 -2q-170 0 -266 142q-72 106 -72 248q1 48 9 101z M287 567h592q5 37 5 72q0 107 -48 183q-63 101 -179 102q-109 0 -213 -102.5t-157 -254.5z" />
<glyph unicode="f" horiz-adv-x="671" d="M217 0l189 889h-150l23 112h147l6 37l6 25q39 143 149.5 246.5t229.5 103.5q66 0 115 -6l-58 -113q-33 8 -79 9q-84 -4 -157 -80t-95 -183l-8 -39h262l-23 -112h-262l-188 -889h-107z" />
<glyph unicode="g" horiz-adv-x="1128" d="M49 -66q18 86 90 162t170 119q-2 11 -2 26q0 25 6 62q12 66 56 105q-91 78 -91 194q0 36 9 76q31 147 173 252.5t312 105.5q72 0 150 -22h372l-131 -111h-96q48 -73 48 -157q0 -33 -7 -68q-33 -150 -174 -252t-313 -102q-43 0 -97 12q-37 10 -61 10q-51 0 -62 -39 q-2 -8 -1 -14q0 -37 49 -37q2 0 10 1t10 1h10q16 4 51 4q174 0 275 -95q78 -74 78 -174q0 -28 -6 -59q-29 -137 -172.5 -235t-315.5 -98q-168 0 -268 98q-78 76 -78 176q0 29 6 59zM158 -66q-4 -19 -5 -36q0 -67 61 -121q77 -68 198 -68q129 0 233.5 66.5t124.5 158.5 q4 18 4 35q0 69 -61 123q-76 68 -205 68q-121 0 -226.5 -68t-123.5 -158zM397 678q-5 -24 -5 -47q0 -73 55 -128q73 -73 196 -73q129 0 232.5 72.5t125.5 175.5q5 25 6 48q0 75 -56 130q-73 72 -201 72q-123 0 -226.5 -73t-126.5 -177z" />
<glyph unicode="h" horiz-adv-x="931" d="M86 0l299 1409h111l-107 -496q135 125 291 125q145 0 222 -109q55 -78 55 -181q0 -41 -9 -86l-133 -656h-110l139 656q5 29 5 56q0 76 -43 133q-58 77 -161 77q-86 0 -173 -71t-130 -167l-145 -690h-111z" />
<glyph unicode="i" horiz-adv-x="362" d="M121 0l217 1024h108l-217 -1024h-108zM381 1309q6 29 30.5 48t55.5 19q29 0 46 -20q13 -15 13 -34q0 -7 -2 -13q-4 -27 -30.5 -47.5t-55.5 -20.5q-31 0 -46 21q-12 16 -12 36q0 5 1 11z" />
<glyph unicode="j" horiz-adv-x="724" d="M10 -387l33 106q33 0 61 -4q10 -2 27 -2l2 6q86 0 162 74t98 178l223 1055h111l-227 -1073q-41 -143 -148.5 -243.5t-232.5 -104.5q-23 0 -64 4q-25 4 -45 4zM657 1298q16 68 84 68q25 0 42 -19q12 -13 12 -31q0 -8 -2 -18q-6 -27 -31 -47t-49 -20q-31 0 -46 19 q-11 14 -11 33q-1 7 1 15z" />
<glyph unicode="k" horiz-adv-x="901" d="M86 0q37 31 51 104l277 1301h110l-147 -696l426 303h172l-381 -269l268 -743h-131l-239 670q-129 -96 -146 -107l-119 -563h-141z" />
<glyph unicode="l" horiz-adv-x="331" d="M121 0l297 1405h110l-297 -1405h-110z" />
<glyph unicode="m" horiz-adv-x="1513" d="M80 0l192 913q5 23 5 49q0 8 -1 17q-2 35 -10 45h142l-25 -115q131 125 287 125q96 0 166.5 -55t99.5 -143q66 100 162 151t188 51q143 0 220 -108q56 -79 56 -185q0 -40 -8 -83l-135 -658h-112l139 658q6 30 5 57q0 74 -40 130q-55 77 -156 77q-92 0 -179 -70t-126 -166 l-145 -686h-111l140 653q5 30 5 57q0 76 -42 132q-57 76 -162 76q-86 0 -172 -70t-127 -166l-146 -686h-110z" />
<glyph unicode="n" horiz-adv-x="886" d="M72 0l194 918q5 26 6 45q0 34 -16 53h141l-22 -103q133 127 291 127q143 0 221 -109q57 -80 57 -187q0 -39 -8 -82l-135 -662h-113l139 662q6 32 7 60q0 74 -41 129q-57 77 -160 77q-88 0 -175 -70t-130 -168l-146 -690h-110z" />
<glyph unicode="o" horiz-adv-x="1050" d="M145 506q45 219 220.5 374.5t374 155.5t304.5 -155q74 -108 74 -247q0 -61 -14 -128q-47 -217 -219 -371.5t-371 -154.5t-307 154q-76 108 -76 246q0 60 14 126zM258 506q-11 -53 -11 -101q0 -107 56 -191q82 -122 236 -122q150 0 282.5 122t169.5 292q12 54 12 104 q0 108 -56 192q-81 122 -232 122q-154 0 -287 -122t-170 -296z" />
<glyph unicode="p" horiz-adv-x="1036" d="M-6 -389l256 1216q4 18 7 43t8 86q1 16 2 29q0 34 -11 37h145l-10 -47q147 68 299 67q205 -4 316 -157q79 -109 78 -250q0 -57 -13 -119q-47 -221 -224 -376.5t-382 -155.5q-174 0 -268 65l-95 -438h-108zM223 190q2 -37 79 -64.5t185 -31.5q160 4 298.5 127t175.5 295 q11 51 10 97q0 109 -61 194q-87 121 -244 121q-119 0 -208 -30t-100 -71z" />
<glyph unicode="q" horiz-adv-x="1050" d="M180 528q45 209 217 358.5t367 149.5q174 0 264 -59l8 35h109l-299 -1401h-109l101 475q-117 -66 -289 -66q-195 4 -303 153q-78 106 -78 243q0 53 12 112zM289 528q-10 -48 -11 -92q0 -106 59 -188q83 -117 234 -121q104 0 189.5 28.5t107.5 67.5l127 604l2 10 q0 35 -66 61q-75 30 -190 30q-152 0 -284.5 -117t-167.5 -283z" />
<glyph unicode="r" horiz-adv-x="571" d="M82 0l192 913q5 19 5 39q0 13 -1 26q-5 34 -24 48h156l-25 -117q127 127 289 127q39 0 63 -10l-51 -111q-27 8 -47 9q-88 0 -174 -70t-127 -168l-145 -686h-111z" />
<glyph unicode="s" horiz-adv-x="854" d="M121 129l98 66q80 -100 223 -101q98 0 176 47t93 119q3 13 3 26q0 51 -45 99q-56 59 -147 80q-131 20 -209 110q-60 70 -60 148q0 22 5 45q25 117 142.5 191.5t261.5 74.5q94 0 175 -38t126 -101l-103 -66q-76 92 -231 93q-96 0 -170 -44t-88 -112q-3 -14 -3 -27 q0 -52 44 -98q55 -57 153 -72q135 -20 208 -109q54 -67 54 -145q0 -27 -6 -55q-27 -121 -140.5 -198.5t-254.5 -77.5q-96 0 -180 38.5t-125 106.5z" />
<glyph unicode="t" horiz-adv-x="696" d="M246 0l190 897h-151l22 113h148l84 395h112l-84 -395h269l-23 -113h-268l-191 -897h-108z" />
<glyph unicode="u" horiz-adv-x="921" d="M166 367l137 653h111l-138 -647v-11q-4 -26 -4 -51q0 -77 43 -136q57 -79 158 -79q90 0 175 71t124 167l148 690h110l-194 -913q-4 -23 -5 -46q0 -11 2 -22q3 -33 11 -43h-142l23 109q-137 -127 -289 -127q-141 0 -218 109q-56 80 -56 185q0 39 8 82z" />
<glyph unicode="v" horiz-adv-x="1024" d="M254 1024h117l168 -856l528 856h123l-635 -1024h-106z" />
<glyph unicode="w" horiz-adv-x="1443" d="M246 1024h119l165 -854l220 354q-14 84 -48 254l-47 246h127l160 -854l528 854h123l-635 -1024l-108 6l-68 367l-235 -373l-105 6z" />
<glyph unicode="x" horiz-adv-x="909" d="M45 0l436 530l-209 494h140l163 -397l338 397h138l-428 -510l211 -514h-136l-174 416l-344 -416h-135z" />
<glyph unicode="y" horiz-adv-x="1095" d="M14 -387l41 115q14 -16 74 -17q70 0 141.5 46t120.5 130l119 193l-186 956h118l152 -815l498 815h118l-592 -958l3 2q-14 -27 -63.5 -108t-74.5 -126q-68 -113 -175 -179t-208 -66q-47 0 -86 12z" />
<glyph unicode="z" horiz-adv-x="925" d="M84 0l22 106l777 805h-600l24 113h754l-23 -106l-778 -805h606l-22 -113h-760z" />
<glyph unicode="{" horiz-adv-x="456" d="M215 666l23 110h55q31 0 57.5 22.5t32.5 53.5l98 461q14 41 62.5 66.5t103.5 25.5l-24 -115q-33 0 -33 6l-101 -471q-41 -70 -102 -75l-10 -56q63 -10 69 -73l-108 -512q0 2 35 2l-23 -111q-49 0 -92 31.5t-33 77.5l103 481q6 33 -10.5 54.5t-47.5 21.5h-55z" />
<glyph unicode="|" horiz-adv-x="268" d="M102 2l310 1454h80l-310 -1454h-80z" />
<glyph unicode="}" horiz-adv-x="385" d="M47 0l23 111q27 0 39 4l108 503q31 72 96 76q2 12 15 56q-63 14 -68 75l98 465h-39l25 115q59 0 94 -26.5t35 -65.5v-13l-94 -448q-6 -33 7 -54.5t44 -21.5h55l-22 -110h-55q-31 0 -54.5 -21.5t-29.5 -54.5l-103 -481q-10 -45 -65.5 -77t-108.5 -32z" />
<glyph unicode="~" horiz-adv-x="710" d="M193 657q96 57 213 58q45 0 102 -21q59 -18 88 -18q102 0 172 51l20 -88q-100 -59 -206 -59q-78 0 -123 30l2 -2q-37 12 -74 13q-96 0 -166 -52z" />
<glyph unicode="&#xa1;" horiz-adv-x="327" d="M115 0l254 1200h98l-254 -1200h-98zM391 1350v2q4 25 24.5 43t47.5 18q25 0 39 -18.5t10 -42.5q-6 -27 -28.5 -44.5t-47.5 -17.5q-55 1 -45 60z" />
<glyph unicode="&#xa2;" horiz-adv-x="978" d="M147 508q43 199 200 349.5t343 172.5l31 137h121l-31 -137q162 -20 264 -164l-96 -82q-70 115 -191 134l-174 -820q113 16 242 129l64 -77q-172 -143 -330 -164l-29 -136h-121l29 138q-176 23 -269.5 172t-52.5 348zM258 508q-33 -154 34.5 -270.5t201.5 -139.5l174 820 q-141 -23 -259 -139.5t-151 -270.5z" />
<glyph unicode="&#xa3;" horiz-adv-x="1138" d="M172 600l23 111h239l148 694h110l-147 -694h364l-22 -111h-365l-104 -489h672l-23 -111h-782l127 600h-240z" />
<glyph unicode="&#xa5;" horiz-adv-x="1394" d="M350 1405h150l340 -664l633 664h147l-741 -774l-13 -58h291l-24 -114h-291l-11 -49h291l-24 -115h-291l-62 -295h-114l61 295h-291l25 115h291l10 49h-291l25 114h291l12 58z" />
<glyph unicode="&#xa6;" horiz-adv-x="268" d="M102 2l150 711h80l-150 -711h-80zM274 817l138 639h80l-138 -639h-80z" />
<glyph unicode="&#xa7;" horiz-adv-x="729" d="M98 37l70 94q84 -39 149 -39q74 0 133.5 34t77.5 93q-59 -16 -110 -16q-104 0 -197 53l70 98q88 -41 153 -41q43 0 86 15q-23 80 -120 135q-94 51 -141.5 141t-28.5 178q23 113 116 174q0 2 6 45q25 111 122.5 177.5t217.5 66.5q96 0 199 -51l-70 -104q-76 45 -157 45 q-68 0 -124 -33t-73 -90q47 12 101 12q92 0 200 -51l-69 -105q-82 45 -160 45q-41 0 -68 -8q29 -74 121 -129q94 -51 139 -138t25 -179q-20 -102 -119 -180q0 -16 -6 -39q-25 -117 -125 -187.5t-219 -70.5q-97 0 -199 55zM350 774q-12 -59 23 -118.5t106 -98.5 q115 -59 150 -158v2q18 25 28 62q12 57 -24.5 119.5t-102.5 103.5q-111 51 -149 156q-25 -37 -31 -68z" />
<glyph unicode="&#xa8;" horiz-adv-x="538" d="M344 1309q6 29 31.5 48t54.5 19t46.5 -20.5t10.5 -46.5q-4 -27 -30.5 -47.5t-55 -20.5t-45 20.5t-12.5 47.5zM610 1309q6 29 32 48t54.5 19t46 -20.5t11.5 -46.5q-4 -27 -31 -47.5t-55.5 -20.5t-45 20.5t-12.5 47.5z" />
<glyph unicode="&#xaa;" horiz-adv-x="366" d="M203 762q10 53 58 89t110 36h55q4 27 -6 49t-29 22q-45 0 -106 -18l2 80q66 16 121 16q49 0 76.5 -43t15.5 -108l-25 -113q-8 -35 -4 -77t18 -58h-116v2q-25 -10 -62 -10q-57 0 -88.5 39t-19.5 94zM281 762q-4 -20 9 -36.5t38 -16.5q23 0 45 16t26 37l11 49h-60 q-25 0 -45 -15.5t-24 -33.5z" />
<glyph unicode="&#xab;" horiz-adv-x="1089" d="M170 569l645 463l55 -86l-551 -391l289 -459l-96 -73zM508 569l645 463l55 -86l-551 -391l289 -459l-96 -73z" />
<glyph unicode="&#xac;" horiz-adv-x="1355" d="M225 688l23 111h1184l-101 -473h-110l77 362h-1073z" />
<glyph unicode="&#xad;" horiz-adv-x="862" d="M190 545l25 110h715l-25 -110h-715z" />
<glyph unicode="&#xb0;" horiz-adv-x="512" d="M297 1202q20 90 94 150.5t166 60.5q86 0 132 -60.5t26 -150.5q-16 -84 -89 -144.5t-157 -60.5q-92 0 -140 59.5t-32 145.5zM381 1202q-10 -47 21.5 -86t82.5 -39q43 0 90.5 39t55.5 86q10 51 -18.5 92t-71.5 41q-51 0 -100.5 -41t-59.5 -92z" />
<glyph unicode="&#xb1;" horiz-adv-x="925" d="M166 307l24 111h715l-24 -111h-715zM299 915l23 113h301l63 301h111l-64 -301h303l-22 -113h-303l-66 -301h-110l65 301h-301z" />
<glyph unicode="&#xb2;" horiz-adv-x="573" d="M190 631l17 80l389 350q51 45 66 106q12 61 -28 108.5t-102 47.5q-66 0 -147 -68l-53 70q123 88 219 88q104 0 162.5 -71.5t36.5 -174.5q-20 -92 -103 -174l-305 -274h311l-18 -88h-445z" />
<glyph unicode="&#xb3;" horiz-adv-x="542" d="M172 719l66 53h26q45 -63 117 -63q57 0 111.5 39.5t66.5 93.5q10 51 -23.5 92t-86.5 47h-119l18 88h121q53 2 104.5 41t61.5 86t-28 84t-95 37q-78 0 -160 -74l-51 70q104 92 229 92q100 0 159 -60.5t40 -148.5q-25 -119 -133 -174q72 -76 51 -180q-20 -92 -103 -155.5 t-182 -63.5q-120 0 -190 96z" />
<glyph unicode="&#xb4;" horiz-adv-x="428" d="M297 1102l195 201h176l-293 -201h-78z" />
<glyph unicode="&#xb6;" horiz-adv-x="782" d="M270 1063q31 143 151 242.5t261 99.5h170l-297 -1405h-184l151 721q-129 10 -205 110.5t-47 231.5zM381 1071q-20 -94 20.5 -161.5t122.5 -69.5l99 463q-84 -2 -153 -69t-89 -163zM575 4l297 1399h107l-297 -1399h-107z" />
<glyph unicode="&#xb7;" horiz-adv-x="460" d="M250 639q10 43 53 79t90 36q49 0 79 -36t19.5 -79t-54.5 -77t-93 -34t-76.5 34t-17.5 77z" />
<glyph unicode="&#xb9;" horiz-adv-x="538" d="M307 1184l314 221h102l-133 -627h-113l103 477l-211 -147z" />
<glyph unicode="&#xba;" horiz-adv-x="475" d="M217 823q20 92 88 152.5t152 60.5q78 0 119.5 -61.5t21.5 -151.5q-18 -84 -85 -143t-144 -59q-82 0 -126 59t-26 143zM295 823q-10 -47 17.5 -86t72.5 -39q39 0 81 39t52 86q10 51 -13.5 93t-64.5 42q-45 0 -90 -42t-55 -93z" />
<glyph unicode="&#xbb;" horiz-adv-x="1073" d="M145 96l486 459l-383 391l92 86l448 -463l-575 -546zM483 96l486 459l-383 391l92 86l448 -463l-575 -546z" />
<glyph unicode="&#xbc;" horiz-adv-x="782" d="M250 918l166 118h59l-131 -612h-70l111 514l-98 -66zM362 254l13 59l321 406l56 -31l-291 -364h168l33 151h69l-33 -151h99l-15 -70h-98l-53 -254h-70l53 254h-252z" />
<glyph unicode="&#xbd;" horiz-adv-x="727" d="M225 920l166 118h60l-132 -614h-69l110 516l-98 -66zM264 0l12 59l365 330q49 45 61 103q14 68 -23.5 112.5t-105.5 44.5q-59 0 -133 -53l-39 49q96 74 187 74q96 0 150.5 -66.5t33.5 -160.5q-18 -80 -96 -154l-299 -270h305l-14 -68h-404z" />
<glyph unicode="&#xbe;" horiz-adv-x="937" d="M135 393l62 45q37 -61 116 -61q63 0 117.5 40t67.5 97q14 74 -52.5 112t-166.5 21l14 72h106q61 4 110.5 39t59.5 84q10 53 -26.5 91t-100.5 38q-80 0 -147 -62l-39 49q90 80 201 80q92 0 146 -57t38 -139q-23 -106 -137 -158q86 -59 63 -170q-18 -86 -97 -146.5 t-173 -60.5q-103 0 -162 86zM514 256l12 61l326 406l53 -31l-284 -364h161l31 151h72l-31 -151h98l-16 -72h-98l-54 -252h-71l53 252h-252z" />
<glyph unicode="&#xbf;" horiz-adv-x="884" d="M166 371q35 158 170 274.5t285 116.5h92l-54 643h117l53 -653l-22 -105h-211q-109 -4 -203 -84t-118.5 -192.5t38 -194.5t174.5 -82q147 0 275 152l63 -82q-164 -184 -362 -184q-156 0 -244 115.5t-53 275.5zM641 1579q16 72 86 72q27 0 42 -20.5t7 -51.5 q-6 -29 -29.5 -49.5t-50.5 -20.5q-31 0 -46 19.5t-9 50.5z" />
<glyph unicode="&#xc0;" d="M51 0l819 1415h93l221 -1415h-117l-94 575h-469l-336 -575h-117zM569 688h387l-84 520zM715 1694h178l106 -201h-75z" />
<glyph unicode="&#xc1;" d="M51 0l819 1415h93l221 -1415h-117l-94 575h-469l-336 -575h-117zM569 688h387l-84 520zM885 1493l194 201h176l-292 -201h-78z" />
<glyph unicode="&#xc2;" d="M51 0l819 1415h93l221 -1415h-117l-94 575h-469l-336 -575h-117zM569 688h387l-84 520z" />
<glyph unicode="&#xc3;" d="M59 14l820 1416h92l221 -1416h-117l-94 576h-469l-336 -576h-117zM578 702h387l-84 521zM686 1626q100 55 203 55q43 0 96 -16q55 -18 80 -18q100 0 164 45l24 -82q-90 -55 -202 -56q-66 0 -115 25l2 -2q-31 12 -70 12q-82 0 -155 -45z" />
<glyph unicode="&#xc4;" d="M51 0l819 1415h93l221 -1415h-117l-94 575h-469l-336 -575h-117zM569 688h387l-84 520zM727 1540q6 29 31.5 48.5t54.5 19.5t46.5 -20.5t10.5 -47.5q-4 -27 -30.5 -47t-55 -20t-45 20t-12.5 47zM993 1540q6 29 32 48.5t54.5 19.5t46 -20.5t11.5 -47.5q-4 -27 -31 -47 t-55.5 -20t-45 20t-12.5 47z" />
<glyph unicode="&#xc5;" d="M754 1614q20 90 94 150.5t166 60.5q86 0 132 -60.5t26 -150.5q-16 -84 -89 -144.5t-157 -60.5q-92 0 -140 59.5t-32 145.5zM838 1614q-10 -47 21.5 -86t82.5 -39q43 0 90.5 39t55.5 86q10 51 -18.5 92t-71.5 41q-51 0 -100.5 -41t-59.5 -92zM51 0l819 1415h93l221 -1415 h-117l-94 575h-469l-336 -575h-117zM569 688h387l-84 520z" />
<glyph unicode="&#xc6;" horiz-adv-x="2213" d="M53 0l821 1415h1319l-22 -108h-717l-106 -498h612l-23 -113h-612l-125 -583h717l-23 -113h-829l121 575h-678l-336 -575h-119zM573 688h637l150 619h-436z" />
<glyph unicode="&#xc7;" horiz-adv-x="1298" d="M248 700q63 303 297.5 513t503.5 210q258 0 407 -209l-96 -73q-129 174 -334 174q-223 0 -418.5 -181.5t-249.5 -433.5q-53 -248 66 -429t342 -181q205 0 401 170l66 -76q-229 -199 -504 -202q-2 -2 -8 -11.5t-6 -11.5q31 -10 57.5 -45t18.5 -76q-18 -74 -144 -135 l-92 80q35 0 85 14.5t56 44.5q6 25 -21.5 36t-56.5 11h-30l24 107q-209 53 -314 249.5t-50 454.5z" />
<glyph unicode="&#xc8;" horiz-adv-x="993" d="M82 0l299 1415h827l-22 -108h-715l-106 -498h610l-23 -113h-610l-125 -583h715l-23 -113h-827zM573 1694h179l106 -201h-76z" />
<glyph unicode="&#xc9;" horiz-adv-x="993" d="M82 0l299 1415h827l-22 -108h-715l-106 -498h610l-23 -113h-610l-125 -583h715l-23 -113h-827zM715 1493l194 201h176l-292 -201h-78z" />
<glyph unicode="&#xca;" horiz-adv-x="993" d="M604 1618l282 231l187 -233l-86 -70l-129 166l-201 -166zM82 0l299 1415h827l-22 -108h-715l-106 -498h610l-23 -113h-610l-125 -583h715l-23 -113h-827z" />
<glyph unicode="&#xcb;" horiz-adv-x="993" d="M82 0l299 1415h827l-22 -108h-715l-106 -498h610l-23 -113h-610l-125 -583h715l-23 -113h-827zM612 1542q6 29 32 48.5t54.5 19.5t46 -20.5t11.5 -47.5q-4 -27 -31 -47t-55.5 -20t-45 20t-12.5 47zM879 1542q6 29 31.5 48.5t54 19.5t46 -20.5t11.5 -47.5 q-4 -27 -30.5 -47t-55.5 -20t-45 20t-12 47z" />
<glyph unicode="&#xcc;" horiz-adv-x="268" d="M104 0l299 1415h113l-299 -1415h-113zM272 1694h179l106 -201h-76z" />
<glyph unicode="&#xcd;" horiz-adv-x="315" d="M88 0l299 1415h113l-299 -1415h-113zM416 1493l194 201h176l-292 -201h-78z" />
<glyph unicode="&#xce;" horiz-adv-x="282" d="M88 0l299 1415h113l-299 -1415h-113z" />
<glyph unicode="&#xcf;" horiz-adv-x="282" d="M88 0l299 1415h113l-299 -1415h-113zM260 1540q6 29 31.5 48.5t54.5 19.5t46.5 -20.5t10.5 -47.5q-4 -27 -30.5 -47t-55 -20t-45 20t-12.5 47zM526 1540q6 29 32 48.5t54.5 19.5t46 -20.5t11.5 -47.5q-4 -27 -31 -47t-55.5 -20t-45 20t-12.5 47z" />
<glyph unicode="&#xd0;" horiz-adv-x="1337" d="M199 551l22 111h135l160 753h526q207 -2 308.5 -208t40 -496.5t-248 -496.5t-394.5 -214h-531l117 551h-135zM352 113q70 0 211.5 2t208.5 2q158 4 306.5 178t199.5 416q31 166 11.5 297t-92.5 211.5t-177 83.5h-414l-137 -641h350l-22 -111h-351z" />
<glyph unicode="&#xd1;" horiz-adv-x="1099" d="M88 0l299 1415h105l446 -1179l250 1179h112l-299 -1415h-106l-444 1186l-252 -1186h-111zM600 1585q84 39 162 39q53 0 129 -29q66 -29 113 -28q66 0 129 37l12 -88q-78 -41 -162 -41q-94 0 -147 41h2q-39 16 -95 16q-63 0 -129 -35z" />
<glyph unicode="&#xd2;" horiz-adv-x="1413" d="M203 707q63 297 295.5 506.5t500.5 209.5q274 0 414.5 -207.5t77.5 -508.5q-68 -319 -309 -527q-225 -199 -488 -198q-264 0 -410.5 210t-80.5 515zM317 707q-53 -256 62 -433.5t338 -177.5q227 0 419.5 177.5t245.5 433.5q55 268 -75 442q-113 160 -332 160 q-221 0 -413 -175t-245 -427zM760 1694h178l106 -201h-75z" />
<glyph unicode="&#xd3;" horiz-adv-x="1413" d="M203 707q63 297 295.5 506.5t500.5 209.5q274 0 414.5 -207.5t77.5 -508.5q-68 -319 -309 -527q-225 -199 -488 -198q-264 0 -410.5 210t-80.5 515zM317 707q-53 -256 62 -433.5t338 -177.5q227 0 419.5 177.5t245.5 433.5q55 268 -75 442q-113 160 -332 160 q-221 0 -413 -175t-245 -427zM997 1493l195 201h176l-293 -201h-78z" />
<glyph unicode="&#xd4;" horiz-adv-x="1413" d="M807 1618l282 231l187 -233l-86 -70l-129 166l-201 -166zM203 707q63 297 295.5 506.5t500.5 209.5q274 0 415 -208q97 -143 97 -330q0 -85 -20 -178q-68 -319 -309 -527q-225 -199 -488 -198q-264 0 -410 209q-101 145 -102 336q1 86 21 180zM317 707q-17 -81 -16 -155 q0 -158 78 -279q115 -177 338 -177q227 0 419.5 177.5t245.5 433.5q16 80 17 150q0 169 -92 292q-113 160 -332 160q-221 0 -413 -175t-245 -427z" />
<glyph unicode="&#xd5;" horiz-adv-x="1413" d="M203 707q63 297 295.5 506.5t500.5 209.5q274 0 414.5 -207.5t77.5 -508.5q-68 -319 -309 -527q-225 -199 -488 -198q-264 0 -410.5 210t-80.5 515zM317 707q-53 -256 62 -433.5t338 -177.5q227 0 419.5 177.5t245.5 433.5q55 268 -75 442q-113 160 -332 160 q-221 0 -413 -175t-245 -427zM756 1587q84 39 162 39q53 0 129 -29q66 -29 112 -28q66 0 129 37l12 -88q-78 -41 -161 -41q-94 0 -148 41h2q-39 16 -94 16q-63 0 -129 -35z" />
<glyph unicode="&#xd6;" horiz-adv-x="1413" d="M203 707q63 297 295.5 506.5t500.5 209.5q274 0 414.5 -207.5t77.5 -508.5q-68 -319 -309 -527q-225 -199 -488 -198q-264 0 -410.5 210t-80.5 515zM317 707q-53 -256 62 -433.5t338 -177.5q227 0 419.5 177.5t245.5 433.5q55 268 -75 442q-113 160 -332 160 q-221 0 -413 -175t-245 -427zM823 1542q6 29 32 48.5t54.5 19.5t46 -20.5t11.5 -47.5q-4 -27 -31 -47t-55.5 -20t-45 20t-12.5 47zM1090 1542q6 29 31.5 48.5t54 19.5t46 -20.5t11.5 -47.5q-4 -27 -30.5 -47t-55.5 -20t-45 20t-12 47z" />
<glyph unicode="&#xd7;" horiz-adv-x="751" d="M158 426l258 215l-166 211l92 80l170 -213l258 213l64 -78l-261 -213l170 -215l-94 -78l-170 213l-260 -213z" />
<glyph unicode="&#xd8;" horiz-adv-x="1413" d="M203 707q63 297 295.5 506.5t500.5 209.5q94 0 187 -30l6 12q4 8 4 10h119l-37 -67q143 -96 200.5 -265.5t12.5 -375.5q-68 -319 -309 -527q-225 -199 -488 -198q-92 0 -186 32q-4 -8 -4 -14h-123l35 61q-137 86 -197.5 260.5t-15.5 385.5zM317 707q-37 -174 6.5 -317.5 t151.5 -221.5l647 1116q-59 25 -147 25q-221 0 -413 -175t-245 -427zM569 121q63 -25 148 -25q227 0 419.5 177.5t245.5 433.5q55 268 -75 442q-49 61 -90 90z" />
<glyph unicode="&#xd9;" horiz-adv-x="1224" d="M156 360l223 1055h119l-224 -1055q-10 -106 93.5 -185t263.5 -79q154 0 289 79t172 185l223 1055h112l-223 -1055q-41 -156 -216 -267t-380 -111q-213 0 -344 111t-108 267zM702 1694h179l106 -201h-76z" />
<glyph unicode="&#xda;" horiz-adv-x="1224" d="M156 360l223 1055h119l-224 -1055q-10 -106 93.5 -185t263.5 -79q154 0 289 79t172 185l223 1055h112l-223 -1055q-41 -156 -216 -267t-380 -111q-213 0 -344 111t-108 267zM877 1493l194 201h176l-293 -201h-77z" />
<glyph unicode="&#xdb;" horiz-adv-x="1224" d="M713 1618l282 231l187 -233l-86 -70l-129 166l-201 -166zM156 360l223 1055h119l-224 -1055q-1 -10 0 -19q0 -95 94 -166q103 -79 263 -79q154 0 289 79t172 185l223 1055h112l-223 -1055q-41 -156 -216 -267t-380 -111q-213 0 -344 111q-112 95 -112 223q1 21 4 44z" />
<glyph unicode="&#xdc;" horiz-adv-x="1224" d="M156 360l223 1055h119l-224 -1055q-10 -106 93.5 -185t263.5 -79q154 0 289 79t172 185l223 1055h112l-223 -1055q-41 -156 -216 -267t-380 -111q-213 0 -344 111t-108 267zM729 1540q6 29 31.5 48.5t54.5 19.5t46.5 -20.5t10.5 -47.5q-4 -27 -30.5 -47t-55 -20t-45 20 t-12.5 47zM995 1540q6 29 32 48.5t54.5 19.5t46 -20.5t11.5 -47.5q-4 -27 -31 -47t-55.5 -20t-45 20t-12.5 47z" />
<glyph unicode="&#xdd;" horiz-adv-x="1394" d="M350 1415h150l346 -667l635 667h147l-745 -778l-135 -637h-115l135 637zM979 1493l195 201h176l-293 -201h-78z" />
<glyph unicode="&#xde;" horiz-adv-x="1095" d="M35 -393l385 1810h112l-94 -438q135 70 297 70q207 -4 319.5 -159t65.5 -372q-47 -223 -225 -379.5t-385 -156.5q-131 0 -270 69l-95 -444h-110zM274 203q-14 -41 63 -73t195 -36q158 4 297.5 127t176.5 295q35 168 -52.5 293t-242.5 125q-106 0 -195.5 -30t-114.5 -68z " />
<glyph unicode="&#xdf;" horiz-adv-x="1064" d="M27 -344l370 1749h455q156 -2 245 -106.5t60 -245.5q-20 -96 -86.5 -176t-161.5 -132q86 -49 123 -141t15 -201q-35 -162 -177.5 -279.5t-314.5 -119.5h-176l-84 107h283q125 6 228 92t127.5 200.5t-49 197.5t-218.5 91h-308l-219 -1036h-112zM383 803h342 q113 4 205 74.5t114 175.5q20 96 -42 166.5t-173 76.5h-342z" />
<glyph unicode="&#xe0;" horiz-adv-x="831" d="M135 295q29 135 151 226t265 91h213l6 29q25 117 -13 199t-126 84q-129 0 -248 -33l-4 106q143 39 278 39q123 -2 189.5 -105.5t44.5 -248.5l-4 -20q-41 -172 -76 -336q-59 -293 -35 -326h-141l12 61q-117 -82 -246 -81q-137 0 -215 92t-51 223zM248 295 q-18 -84 34 -142.5t144 -58.5q94 0 173 58.5t97 142.5l45 207h-213q-98 0 -179 -58.5t-101 -148.5zM428 1303h178l107 -201h-76z" />
<glyph unicode="&#xe1;" horiz-adv-x="831" d="M135 295q29 135 151 226t265 91h213l6 29q25 117 -13 199t-126 84q-129 0 -248 -33l-4 106q143 39 278 39q123 -2 189.5 -105.5t44.5 -248.5l-4 -20q-41 -172 -76 -336q-59 -293 -35 -326h-141l12 61q-117 -82 -246 -81q-137 0 -215 92t-51 223zM248 295 q-18 -84 34 -142.5t144 -58.5q94 0 173 58.5t97 142.5l45 207h-213q-98 0 -179 -58.5t-101 -148.5zM573 1102l195 201h176l-293 -201h-78z" />
<glyph unicode="&#xe2;" horiz-adv-x="831" d="M135 295q29 135 151 226t265 91h213l6 29q25 117 -13 199t-126 84q-129 0 -248 -33l-4 106q143 39 278 39q123 -2 189.5 -105.5t44.5 -248.5l-4 -20q-41 -172 -76 -336q-59 -293 -35 -326h-141l12 61q-117 -82 -246 -81q-137 0 -215 92t-51 223zM248 295 q-18 -84 34 -142.5t144 -58.5q94 0 173 58.5t97 142.5l45 207h-213q-98 0 -179 -58.5t-101 -148.5zM418 1145l282 231l187 -233l-86 -70l-129 166l-201 -166z" />
<glyph unicode="&#xe3;" horiz-adv-x="831" d="M143 309q29 135 151 226.5t265 91.5h213l6 28q25 117 -13 199t-126 84q-129 0 -248 -33l-4 107q143 39 279 39q123 -2 189.5 -105.5t43.5 -249.5l-4 -20q-41 -172 -76 -336q-59 -293 -35 -326h-141l12 62q-117 -82 -245 -82q-137 0 -215.5 92t-51.5 223zM256 309 q-18 -84 34 -142t144 -58q94 0 173 58t98 142l45 207h-213q-98 0 -179.5 -58.5t-101.5 -148.5zM365 1184q104 61 208 61q41 0 90.5 -16.5t71.5 -16.5q100 0 174 54l23 -80q-96 -63 -207 -64q-63 0 -109 23l2 -2q-31 10 -63 10q-92 0 -160 -51z" />
<glyph unicode="&#xe4;" horiz-adv-x="831" d="M143 309q29 135 151 226.5t265 91.5h213l6 28q25 117 -13 199t-126 84q-129 0 -248 -33l-4 107q143 39 279 39q123 -2 189.5 -105.5t43.5 -249.5l-4 -20q-41 -172 -76 -336q-59 -293 -35 -326h-141l12 62q-117 -82 -245 -82q-137 0 -215.5 92t-51.5 223zM256 309 q-18 -84 34 -142t144 -58q94 0 173 58t98 142l45 207h-213q-98 0 -179.5 -58.5t-101.5 -148.5zM502 1309q6 29 30.5 48t55.5 19q29 0 46 -20.5t11 -46.5q-4 -27 -30.5 -47.5t-55.5 -20.5q-31 0 -46 20.5t-11 47.5zM768 1309q6 29 31.5 48t54.5 19t46.5 -20.5t10.5 -46.5 q-4 -27 -30.5 -47.5t-55 -20.5t-45 20.5t-12.5 47.5z" />
<glyph unicode="&#xe5;" horiz-adv-x="831" d="M518 1364q20 90 94 150.5t166 60.5q86 0 132 -60.5t26 -150.5q-16 -84 -89 -144.5t-157 -60.5q-92 0 -140 59.5t-32 145.5zM602 1364q-10 -47 21.5 -86t82.5 -39q43 0 90.5 39t55.5 86q10 51 -18.5 92t-71.5 41q-51 0 -100.5 -41t-59.5 -92zM135 295q29 135 151 226 t265 91h213l6 29q10 46 10 86q0 62 -23 113q-38 82 -126 84q-129 0 -248 -33l-4 106q143 39 278 39q123 -2 190 -105q50 -77 50 -178q0 -34 -6 -71l-4 -20q-41 -172 -76 -336q-42 -207 -42 -285q0 -32 7 -41h-141l12 61q-117 -82 -246 -81q-137 0 -215 92q-58 69 -58 159 q0 31 7 64zM248 295q-5 -22 -5 -42q0 -57 39 -100q52 -58 144 -59q94 0 173 58.5t97 142.5l45 207h-213q-98 0 -179 -58.5t-101 -148.5z" />
<glyph unicode="&#xe6;" horiz-adv-x="1521" d="M139.5 295q26.5 131 145 224t258.5 93h215q2 6 22 54q20 109 -21.5 181.5t-123.5 76.5q-129 0 -246 -33l-6 106q145 39 279 39q86 -2 146 -55t83 -141q76 92 171 145t189 53q172 0 258 -149.5t39 -368.5l-12 -61h-692l-17 -74q6 -125 74 -209t172 -84q111 0 281 78 l24 -98q-129 -63 -274 -88q-16 -2 -53 -2q-184 0 -275 149q-16 -104 12 -131h-149l12 61q-117 -82 -243 -81q-139 0 -217 92t-51.5 223zM254 295q-18 -84 33 -142.5t145 -58.5q92 0 171 58.5t97 142.5l13 57q0 66 10 121l6 29h-209q-92 0 -170 -60.5t-96 -146.5zM868 567 h580q20 154 -43.5 255.5t-178 101.5t-218 -101.5t-140.5 -255.5z" />
<glyph unicode="&#xe7;" horiz-adv-x="1009" d="M176 510q47 217 224.5 371.5t381.5 154.5q209 0 326 -172l-94 -78q-96 137 -256 138q-158 0 -295 -121t-174 -293q-37 -174 49 -295t244 -121q156 0 305 129l63 -78q-168 -145 -358 -163l-17 -29q31 -12 56.5 -47t17.5 -76q-14 -66 -141 -137l-82 78q39 4 80 19t45 36 q6 31 -18.5 44t-55.5 13q-2 0 -6 -2h-4h-23l27 109q-166 35 -251 180t-44 340z" />
<glyph unicode="&#xe8;" horiz-adv-x="933" d="M152 473l6 37q47 219 201.5 373.5t322.5 154.5q172 0 257 -149.5t38 -368.5l-12 -61h-703q-23 -158 46 -261.5t196 -105.5q111 0 280 78l23 -98q-129 -63 -272 -88q-16 -2 -54 -2q-170 0 -266 142t-63 349zM287 567h592q20 154 -43.5 255.5t-178.5 101.5 q-109 0 -213 -102.5t-157 -254.5zM487 1303h179l106 -201h-76z" />
<glyph unicode="&#xe9;" horiz-adv-x="933" d="M152 473l6 37q47 219 201.5 373.5t322.5 154.5q172 0 257 -149.5t38 -368.5l-12 -61h-703q-23 -158 46 -261.5t196 -105.5q111 0 280 78l23 -98q-129 -63 -272 -88q-16 -2 -54 -2q-170 0 -266 142t-63 349zM287 567h592q20 154 -43.5 255.5t-178.5 101.5 q-109 0 -213 -102.5t-157 -254.5zM633 1102l194 201h177l-293 -201h-78z" />
<glyph unicode="&#xea;" horiz-adv-x="933" d="M152 473l6 37q47 219 201.5 373.5t322.5 154.5q172 0 257 -149.5t38 -368.5l-12 -61h-703q-23 -158 46 -261.5t196 -105.5q111 0 280 78l23 -98q-129 -63 -272 -88q-16 -2 -54 -2q-170 0 -266 142t-63 349zM287 567h592q20 154 -43.5 255.5t-178.5 101.5 q-109 0 -213 -102.5t-157 -254.5zM469 1145l283 231l186 -233l-86 -70l-129 166l-201 -166z" />
<glyph unicode="&#xeb;" horiz-adv-x="933" d="M152 473l6 37q47 219 201.5 373.5t322.5 154.5q172 0 257 -149.5t38 -368.5l-12 -61h-703q-23 -158 46 -261.5t196 -105.5q111 0 280 78l23 -98q-129 -63 -272 -88q-16 -2 -54 -2q-170 0 -266 142t-63 349zM287 567h592q20 154 -43.5 255.5t-178.5 101.5 q-109 0 -213 -102.5t-157 -254.5zM535 1309q6 29 31.5 48t54 19t46 -20.5t11.5 -46.5q-4 -27 -30.5 -47.5t-55.5 -20.5t-45 20.5t-12 47.5zM801 1309q6 29 31.5 48t54 19t46 -20.5t11.5 -46.5q-4 -27 -30.5 -47.5t-55.5 -20.5t-45 20.5t-12 47.5z" />
<glyph unicode="&#xec;" horiz-adv-x="432" d="M180 0l217 1024h109l-217 -1024h-109zM279 1317h178l106 -201h-76z" />
<glyph unicode="&#xed;" horiz-adv-x="432" d="M121 0l217 1024h111l-218 -1024h-110zM317 1116l195 201h176l-293 -201h-78z" />
<glyph unicode="&#xee;" horiz-adv-x="362" d="M121 0l217 1024h108l-217 -1024h-108zM195 1159l282 232l187 -234l-86 -70l-129 166l-201 -166z" />
<glyph unicode="&#xef;" horiz-adv-x="362" d="M121 0l217 1024h108l-217 -1024h-108zM289 1309q6 29 31.5 48t54 19t46 -20.5t11.5 -46.5q-4 -27 -30.5 -47.5t-55.5 -20.5t-45 20.5t-12 47.5zM477 1309q6 29 30.5 48t55.5 19q29 0 46.5 -20.5t11.5 -46.5q-4 -27 -31 -47.5t-55 -20.5q-31 0 -46.5 20.5t-11.5 47.5z" />
<glyph unicode="&#xf0;" horiz-adv-x="1001" d="M145 166l119 84q76 -150 234 -150q125 0 232.5 79t160.5 200q53 150 88 313l6 25q-168 -154 -371 -154q-170 0 -270 120t-68 290l5 14q37 176 188.5 302t329.5 126q170 0 268 -124t76 -298q-16 -111 -56 -280l-10 -54q-37 -174 -90 -307q-63 -162 -212.5 -264 t-315.5 -102q-98 0 -181.5 49t-132.5 131zM385 977q-20 -127 53.5 -215t198.5 -88q135 0 249.5 92t141.5 225q27 125 -50 217t-202 92q-135 0 -248.5 -96t-142.5 -227z" />
<glyph unicode="&#xf1;" horiz-adv-x="886" d="M80 14l194 918q14 70 -10 98h142l-23 -102q133 127 291 127q143 0 221 -109.5t49 -269.5l-135 -662h-113l140 662q23 113 -35 189.5t-160 76.5q-88 0 -175 -69.5t-130 -167.5l-146 -691h-110zM412 1276q90 55 204 55q35 0 95 -18q49 -16 77 -17q84 0 162 54l25 -86 q-98 -57 -207 -58q-70 0 -109 25l3 -2q-27 12 -72 12q-68 0 -158 -51z" />
<glyph unicode="&#xf2;" horiz-adv-x="1079" d="M145 506q45 219 220.5 374.5t374 155.5t305 -155.5t59.5 -374.5q-47 -217 -219 -371.5t-371 -154.5t-307.5 154.5t-61.5 371.5zM258 506q-37 -170 45 -292t236 -122q150 0 282.5 122t169.5 292q37 174 -44 296t-232 122q-154 0 -287 -122t-170 -296zM561 1303h178 l107 -201h-76z" />
<glyph unicode="&#xf3;" horiz-adv-x="1079" d="M145 506q45 219 220.5 374.5t374 155.5t305 -155.5t59.5 -374.5q-47 -217 -219 -371.5t-371 -154.5t-307.5 154.5t-61.5 371.5zM258 506q-37 -170 45 -292t236 -122q150 0 282.5 122t169.5 292q37 174 -44 296t-232 122q-154 0 -287 -122t-170 -296zM719 1102l194 201 h177l-293 -201h-78z" />
<glyph unicode="&#xf4;" horiz-adv-x="1050" d="M145 506q45 219 220.5 374.5t374 155.5t305 -155.5t59.5 -374.5q-47 -217 -219 -371.5t-371 -154.5t-307.5 154.5t-61.5 371.5zM258 506q-37 -170 45 -292t236 -122q150 0 282.5 122t169.5 292q37 174 -44 296t-232 122q-154 0 -287 -122t-170 -296zM528 1145l283 231 l186 -233l-86 -70l-129 166l-200 -166z" />
<glyph unicode="&#xf5;" horiz-adv-x="1050" d="M145 506q45 219 220.5 374.5t374 155.5t305 -155.5t59.5 -374.5q-47 -217 -219 -371.5t-371 -154.5t-307.5 154.5t-61.5 371.5zM258 506q-37 -170 45 -292t236 -122q150 0 282.5 122t169.5 292q37 174 -44 296t-232 122q-154 0 -287 -122t-170 -296zM520 1262 q84 39 162 38q53 0 129 -28q66 -29 113 -29q66 0 129 37l12 -88q-78 -41 -162 -41q-94 0 -147 41h2q-39 16 -94 16q-63 0 -129 -34z" />
<glyph unicode="&#xf6;" horiz-adv-x="1079" d="M145 506q45 219 220.5 374.5t374 155.5t305 -155.5t59.5 -374.5q-47 -217 -219 -371.5t-371 -154.5t-307.5 154.5t-61.5 371.5zM258 506q-37 -170 45 -292t236 -122q150 0 282.5 122t169.5 292q37 174 -44 296t-232 122q-154 0 -287 -122t-170 -296zM618 1309q6 29 32 48 t54.5 19t46 -20.5t11.5 -46.5q-4 -27 -30.5 -47.5t-55.5 -20.5t-45.5 20.5t-12.5 47.5zM885 1309q6 29 31.5 48t54 19t46 -20.5t11.5 -46.5q-4 -27 -30.5 -47.5t-55.5 -20.5t-45 20.5t-12 47.5z" />
<glyph unicode="&#xf7;" horiz-adv-x="870" d="M188 559l25 111h715l-25 -111h-715zM403 279l35 155h156l-35 -155h-156zM508 770l35 156h155l-34 -156h-156z" />
<glyph unicode="&#xf8;" horiz-adv-x="1050" d="M145 506q45 219 220.5 374.5t373.5 155.5q201 0 316 -174l-103 -74q-86 135 -237 136q-154 0 -287 -122t-170 -296q-27 -121 4 -213l-100 -74q-46 144 -17 287zM182 178l99 74q84 -160 258 -160q150 0 282.5 122t169.5 292q27 129 -20 244l104 73q63 -156 29 -317 q-47 -217 -219 -371.5t-371 -154.5q-226 -1 -332 198z" />
<glyph unicode="&#xf9;" horiz-adv-x="921" d="M166 367l137 653h111l-138 -647v-11q-18 -109 39.5 -187.5t157.5 -78.5q90 0 175 71t124 167l148 690h110l-194 -913q-6 -35 -3 -68t11 -43h-142l23 109q-137 -127 -289 -127q-141 0 -218 109.5t-48 266.5zM485 1303h179l106 -201h-76z" />
<glyph unicode="&#xfa;" horiz-adv-x="921" d="M166 367l137 653h111l-138 -647v-11q-18 -109 39.5 -187.5t157.5 -78.5q90 0 175 71t124 167l148 690h110l-194 -913q-6 -35 -3 -68t11 -43h-142l23 109q-137 -127 -289 -127q-141 0 -218 109.5t-48 266.5zM610 1102l195 201h176l-293 -201h-78z" />
<glyph unicode="&#xfb;" horiz-adv-x="921" d="M166 367l137 653h111l-138 -647v-11q-18 -109 39.5 -187.5t157.5 -78.5q90 0 175 71t124 167l148 690h110l-194 -913q-6 -35 -3 -68t11 -43h-142l23 109q-137 -127 -289 -127q-141 0 -218 109.5t-48 266.5zM463 1145l282 231l187 -233l-86 -70l-129 166l-201 -166z" />
<glyph unicode="&#xfc;" horiz-adv-x="921" d="M166 367l137 653h111l-138 -647v-11q-18 -109 39.5 -187.5t157.5 -78.5q90 0 175 71t124 167l148 690h110l-194 -913q-6 -35 -3 -68t11 -43h-142l23 109q-137 -127 -289 -127q-141 0 -218 109.5t-48 266.5zM528 1309q6 29 32 48t54.5 19t46 -20.5t11.5 -46.5 q-4 -27 -31 -47.5t-55.5 -20.5t-45 20.5t-12.5 47.5zM795 1309q6 29 31.5 48t54 19t46 -20.5t11.5 -46.5q-4 -27 -30.5 -47.5t-55.5 -20.5t-45 20.5t-12 47.5z" />
<glyph unicode="&#xfd;" horiz-adv-x="1095" d="M14 -387l41 115q14 -16 74 -17q70 0 141.5 46t120.5 130l119 193l-186 956h118l152 -815l498 815h118l-592 -958l3 2q-14 -27 -63.5 -108t-74.5 -126q-68 -113 -175 -179t-208 -66q-47 0 -86 12zM739 1102l195 201h176l-293 -201h-78z" />
<glyph unicode="&#xfe;" horiz-adv-x="1058" d="M35 -391l383 1798h112l-94 -434q139 68 295 67q207 -4 317.5 -157.5t65.5 -368.5q-47 -221 -224 -376.5t-382 -155.5q-129 0 -268 69l-95 -442h-110zM272 201q-12 -41 65 -72t193 -35q158 4 296.5 126t174.5 292q35 166 -52 290t-240 124q-106 0 -195.5 -29t-112.5 -68z " />
<glyph unicode="&#xff;" horiz-adv-x="1095" d="M14 -387l41 115q14 -16 74 -17q70 0 141.5 46t120.5 130l119 193l-186 956h118l152 -815l498 815h118l-592 -958l3 2q-14 -27 -63.5 -108t-74.5 -126q-68 -113 -175 -179t-208 -66q-47 0 -86 12zM637 1309q6 29 31.5 48t54.5 19t46 -20.5t11 -46.5q-4 -27 -30.5 -47.5 t-55 -20.5t-45 20.5t-12.5 47.5zM903 1309q6 29 32 48t54.5 19t46 -20.5t11.5 -46.5q-4 -27 -31 -47.5t-55.5 -20.5t-45 20.5t-12.5 47.5z" />
<glyph unicode="&#x152;" horiz-adv-x="2162" d="M207 707q63 297 295.5 506.5t498.5 209.5q354 0 469 -307l64 299h829l-22 -108h-717l-106 -498h612l-23 -113h-612l-125 -583h717l-23 -113h-829l61 293q-57 -68 -110 -113q-225 -199 -490 -198q-262 0 -408.5 210t-80.5 515zM322 707q-53 -256 61.5 -433.5t335.5 -177.5 q211 0 396 162t257 395l23 105q33 236 -84 391q-113 160 -334 160q-219 0 -410.5 -175t-244.5 -427z" />
<glyph unicode="&#x153;" horiz-adv-x="1802" d="M152 506q45 219 220 374.5t373 155.5q133 0 231.5 -78.5t133.5 -205.5q80 127 195.5 206.5t228.5 79.5q172 0 258 -149.5t39 -368.5l-12 -61h-705q-23 -158 46 -261.5t196 -105.5q111 0 280 78l25 -98q-129 -63 -275 -88q-16 -2 -53 -2q-123 0 -210 77.5t-115 206.5 q-88 -127 -220.5 -206.5t-267.5 -79.5q-199 0 -307 154.5t-61 371.5zM262 506q-37 -170 46 -292t237 -122q150 0 281.5 122t168.5 292q37 174 -44 296t-230 122q-154 0 -288 -122t-171 -296zM1139 567h592q20 154 -43.5 255.5t-178.5 101.5q-109 0 -213 -102.5t-157 -254.5z " />
<glyph unicode="&#x178;" horiz-adv-x="1394" d="M350 1415h150l346 -667l635 667h147l-745 -778l-135 -637h-115l135 637zM807 1520q6 29 31.5 48t54.5 19t46 -20.5t11 -46.5q-4 -27 -30.5 -47.5t-55 -20.5t-45 20.5t-12.5 47.5zM1073 1520q6 29 31.5 48t54.5 19t46.5 -20.5t11.5 -46.5q-4 -27 -31 -47.5t-55.5 -20.5 t-45 20.5t-12.5 47.5z" />
<glyph unicode="&#x2c6;" horiz-adv-x="548" d="M289 1145l282 231l187 -233l-86 -70l-129 166l-201 -166z" />
<glyph unicode="&#x2dc;" horiz-adv-x="684" d="M322 1262q84 39 161 38q53 0 129 -28q66 -29 113 -29q66 0 129 37l12 -88q-78 -41 -161 -41q-94 0 -148 41h2q-39 16 -94 16q-63 0 -129 -34z" />
<glyph unicode="&#x2000;" horiz-adv-x="923" />
<glyph unicode="&#x2001;" horiz-adv-x="1849" />
<glyph unicode="&#x2002;" horiz-adv-x="923" />
<glyph unicode="&#x2003;" horiz-adv-x="1849" />
<glyph unicode="&#x2004;" horiz-adv-x="616" />
<glyph unicode="&#x2005;" horiz-adv-x="460" />
<glyph unicode="&#x2006;" horiz-adv-x="307" />
<glyph unicode="&#x2007;" horiz-adv-x="307" />
<glyph unicode="&#x2008;" horiz-adv-x="229" />
<glyph unicode="&#x2009;" horiz-adv-x="368" />
<glyph unicode="&#x200a;" horiz-adv-x="102" />
<glyph unicode="&#x2010;" horiz-adv-x="862" d="M190 545l25 110h715l-25 -110h-715z" />
<glyph unicode="&#x2011;" horiz-adv-x="862" d="M190 545l25 110h715l-25 -110h-715z" />
<glyph unicode="&#x2012;" horiz-adv-x="862" d="M190 545l25 110h715l-25 -110h-715z" />
<glyph unicode="&#x2013;" horiz-adv-x="851" d="M190 545l25 110h715l-25 -110h-715z" />
<glyph unicode="&#x2014;" horiz-adv-x="1089" d="M193 545l24 110h942l-24 -110h-942z" />
<glyph unicode="&#x2018;" horiz-adv-x="307" d="M311 1196l144 211l32 -18l-53 -156l31 -121l-121 -51z" />
<glyph unicode="&#x2019;" horiz-adv-x="325" d="M293 1118l94 139l14 138l125 10l-14 -143l-197 -172z" />
<glyph unicode="&#x201a;" horiz-adv-x="352" d="M39 -111l106 129l31 138h123l-33 -148l-213 -153z" />
<glyph unicode="&#x201c;" horiz-adv-x="446" d="M326 1262l47 143l121 -10l-45 -138q12 -49 36 -139l-32 -28zM471 1262l47 143l121 -10l-45 -138q12 -49 37 -139l-33 -28z" />
<glyph unicode="&#x201d;" horiz-adv-x="485" d="M295 1118l94 139l12 138l125 10l-14 -143l-197 -172zM440 1118l95 139l12 138l125 10l-15 -143l-196 -172z" />
<glyph unicode="&#x201e;" horiz-adv-x="473" d="M20 -109l107 132l25 137h124l-30 -146l-209 -155zM168 -111l106 131l29 138h121l-31 -148l-213 -155z" />
<glyph unicode="&#x2022;" horiz-adv-x="428" d="M242 778q12 55 63 97.5t107 42.5q53 0 86.5 -42t21.5 -98q-10 -51 -62 -92t-106 -41q-55 0 -87.5 41t-22.5 92z" />
<glyph unicode="&#x2026;" horiz-adv-x="890" d="M78 0l33 156h155l-33 -156h-155zM367 0l32 156h156l-33 -156h-155zM655 0l33 156h156l-33 -156h-156z" />
<glyph unicode="&#x202f;" horiz-adv-x="368" />
<glyph unicode="&#x2039;" horiz-adv-x="720" d="M186 508l615 510l63 -78l-520 -432l338 -422l-94 -82z" />
<glyph unicode="&#x203a;" horiz-adv-x="702" d="M96 86l520 422l-337 432l98 78l395 -510l-612 -504z" />
<glyph unicode="&#x205f;" horiz-adv-x="460" />
<glyph unicode="&#x20ac;" horiz-adv-x="1525" d="M186 520l25 113h199q0 2 2 10t2 12q0 14 6 39q4 23 26 97v4h-200l24 112h224q111 223 317.5 364.5t429.5 141.5q283 0 457 -235l-99 -82q-143 203 -382 202q-176 0 -343 -108.5t-262 -282.5h676l-24 -112h-703q-20 -51 -29 -101q-6 -14 -6 -35q-2 -8 -3 -15t-1 -11h707 l-25 -113h-682q16 -182 138 -303t301 -121q244 0 471 211l61 -90q-270 -236 -555 -235q-236 0 -384 151.5t-153 386.5h-215z" />
<glyph unicode="&#x2122;" horiz-adv-x="854" d="M330 1303l18 86h328l-19 -86h-116l-74 -347h-92l74 347h-119zM592 956l92 433h74l67 -175q49 68 84 109q8 10 27.5 32.5l28.5 33.5h71l-92 -433h-88l49 238l-35 -43l-32.5 -41t-18.5 -23h-49l-39 107l-49 -238h-90z" />
<glyph unicode="&#xe000;" horiz-adv-x="1025" d="M0 1025h1025v-1025h-1025v1025z" />
<glyph unicode="&#xfb01;" horiz-adv-x="1034" d="M217 0l189 889h-150l23 112h147l6 37l6 25q39 143 149.5 246.5t229.5 103.5q66 0 115 -6l-58 -113q-33 8 -79 9q-84 -4 -157 -80t-95 -183l-8 -39h260l-211 -1001h-109l189 889h-152l-188 -889h-107z" />
<glyph unicode="&#xfb02;" horiz-adv-x="1003" d="M217 0l189 889h-152l22 112h150l6 37l6 25q39 145 148.5 245.5t230.5 104.5h111l-299 -1413h-115l188 889h-190l-188 -889h-107zM535 1001h190l66 302q-82 -6 -154 -81t-94 -182zM791 1303l2 14l12 -14h-10h-4z" />
<glyph unicode="&#xfb03;" horiz-adv-x="1705" d="M1464 0l217 1024h108l-217 -1024h-108zM1724 1309q6 29 30.5 48t55.5 19q29 0 46 -20q13 -15 13 -34q0 -7 -2 -13q-4 -27 -30.5 -47.5t-55.5 -20.5q-31 0 -46 21q-12 16 -12 36q0 5 1 11zM889 0l189 889h-150l23 112h147l6 37l6 25q39 143 149.5 246.5t229.5 103.5 q66 0 115 -6l-58 -113q-33 8 -79 9q-84 -4 -157 -80t-95 -183l-8 -39h262l-23 -112h-262l-188 -889h-107zM217 0l189 889h-150l23 112h147l6 37l6 25q39 143 149.5 246.5t229.5 103.5q66 0 115 -6l-58 -113q-33 8 -79 9q-84 -4 -157 -80t-95 -183l-8 -39h262l-23 -112h-262 l-188 -889h-107z" />
<glyph unicode="&#xfb04;" horiz-adv-x="1675" d="M1464 0l297 1405h110l-297 -1405h-110zM889 0l189 889h-150l23 112h147l6 37l6 25q39 143 149.5 246.5t229.5 103.5q66 0 115 -6l-58 -113q-33 8 -79 9q-84 -4 -157 -80t-95 -183l-8 -39h262l-23 -112h-262l-188 -889h-107zM217 0l189 889h-150l23 112h147l6 37l6 25 q39 143 149.5 246.5t229.5 103.5q66 0 115 -6l-58 -113q-33 8 -79 9q-84 -4 -157 -80t-95 -183l-8 -39h262l-23 -112h-262l-188 -889h-107z" />
<glyph horiz-adv-x="526" />
</font>
</defs>
</svg>
