<?xml version="1.0" standalone="no"?>
<!DOCTYPE svg PUBLIC "-//W3C//DTD SVG 1.1//EN" "http://www.w3.org/Graphics/SVG/1.1/DTD/svg11.dtd" >
<svg xmlns="http://www.w3.org/2000/svg">
<metadata>
This is a custom SVG webfont generated by Font Squirrel.
Copyright   : Llicia gratu  Free License La Tipomatika
Designer    : La Tipomatika Digital Type Foundry
Foundry     : La Tipomatika
</metadata>
<defs>
<font id="webfontGRGk34VW" horiz-adv-x="1003" >
<font-face units-per-em="2048" ascent="1638" descent="-410" />
<missing-glyph horiz-adv-x="526" />
<glyph unicode=" "  horiz-adv-x="526" />
<glyph unicode="&#x09;" horiz-adv-x="526" />
<glyph unicode="&#xa0;" horiz-adv-x="526" />
<glyph unicode="!" horiz-adv-x="397" d="M66 43q0 35 23.5 58.5t57.5 23.5q16 0 33 -6v57h-102v1249h139v-102h102v-1249h-98q6 -16 6 -29v-2q0 -8 -4 -25q16 4 27 5q76 0 80 -80v-2q0 -33 -23.5 -57.5t-56.5 -24.5q-35 0 -58.5 24.5t-23.5 57.5q0 16 2 24q-12 -4 -23 -4q-35 0 -58 24.5t-23 57.5zM86 43 q0 -25 17.5 -43t43.5 -18q25 0 42.5 18t17.5 43v2q-4 59 -60 59q-27 0 -44 -17t-17 -44zM98 197h99v1208h-99v-1208z" />
<glyph unicode="&#x22;" horiz-adv-x="540" d="M53 1425h312l10 -102h92l18 -164l-100 -215l-57 57l-9 123l-36 -77l-47 -103l-58 57l-8 123l-37 -77l-57 57zM76 1405l20 -293l31 -31l86 183l-16 141h-121zM225 1405l21 -293l30 -31l86 183l-16 141h-121z" />
<glyph unicode="#" horiz-adv-x="1642" d="M39 793l125 155h340l82 215q6 14 30.5 77t34.5 91h160l-39 -102h141l-104 -281h266l101 266q12 31 43 117h161l-39 -102h142l-105 -281h119l-82 -102h184l-124 -156h-185q-4 -12 -14 -36.5t-14 -37.5q-2 -8 -8.5 -21t-8.5 -20h254l-86 -102h189l-129 -156h-324l-76 -206 l-82 -234h-166l37 103h-139l123 337h-268q-63 -188 -99 -280v2l-29 -78q-22 -57 -30 -84h-164l37 103h-139l122 337h-133l84 103h-186l127 155h201q6 20 21.5 60.5t21.5 54.5h-271l82 103h-184zM82 813h397l-96 -258h-205l-94 -115h260l-162 -440h121l160 440h450l-161 -440 h122l158 440h328l96 115h-381l99 258h188l92 115h-242l140 383h-119q-127 -336 -143 -383h-447l139 383h-118l-146 -383h-344zM506 555l96 258h447l-95 -258h-448zM674 575h268q6 16 17.5 50l17.5 51q4 8 6 14h-264z" />
<glyph unicode="$" horiz-adv-x="1058" d="M41 188l123 97q43 -63 98 -107l4 4q4 -8 8 -12q59 -45 129 -53v442q-119 53 -184 148q-168 119 -168 321q0 143 99.5 250.5t252.5 142.5v97h152v-86q45 -2 96 -17h6v-2q139 -41 258 -172l-6 -4q61 -45 109 -98l-121 -99q-104 125 -240 140v-459q117 -51 189 -152 q170 -123 170 -313q0 -139 -103.5 -248.5t-255.5 -140.5v-121h-151v102h-103v37q-147 51 -245 181q-74 56 -117 122zM70 184q57 -82 148 -136t196 -64h10v-115h111v119q154 23 256 126t102 244q0 137 -101.5 242t-256.5 139v566q160 -10 262 -134l90 72q-145 162 -352 168 v86h-111v-92q-154 -29 -253 -132.5t-99 -244.5q0 -139 97 -244.5t255 -138.5v-551q-78 4 -149.5 51.5t-114.5 110.5zM188 1036q0 88 68 161t168 97v-532q-104 27 -170 104.5t-66 169.5zM311 934q0 -66 31 -117q25 -16 61 -26v319q-92 -72 -92 -176zM535 100v531 q106 -23 173.5 -101.5t67.5 -177.5q0 -96 -68.5 -166t-172.5 -86zM657 168q98 68 99 184q0 63 -35 121q-18 12 -64 29v-334z" />
<glyph unicode="&#x26;" horiz-adv-x="1280" d="M45 389q0 119 88 227.5t246 186.5q2 0 10 4q-2 2 -2 4l2 -2q0 2 -2 2l-2 4q-100 104 -131 172t-31 135q0 123 96.5 217.5t247.5 94.5q195 0 285 -152q143 -88 143 -250q0 -193 -268 -340l-6 -4l156 -196q12 -16 20 -25q33 70 64 188l169 -34q-10 -27 -26 -76l129 -27 q-76 -219 -131 -305q0 -8 -2 -12l-2 -4v-7q4 -6 13 -21l13 -22q2 -2 4 -2v-2q31 -43 103 -100v-178q-123 78 -203 172l-35 29q-176 -190 -401 -189q-119 0 -216 50t-157 134q-82 57 -128 143.5t-46 184.5zM66 389q0 -160 121.5 -274.5t301.5 -114.5q223 -2 388 182 q16 16 22 25l25 -31q2 -2 14 -18q84 -102 170 -156v133q-51 41 -72.5 66.5t-60.5 87.5q0 4 2 15t2 18q61 92 125 282l-127 27q-18 -84 -66 -178q-2 -6 -8 -19.5t-10 -19.5l-307 383l30 16q256 141 256 322q0 117 -86 197.5t-219 80.5q-141 0 -232 -87t-91 -204 q0 -66 29.5 -129t125.5 -164q18 -25 23 -28q-6 -4 -16.5 -8.5t-18.5 -8.5q-321 -145 -321 -395zM199 399q0 172 256 320l20 14l346 -432q-6 -6 -12 -18v2q-55 -82 -144.5 -134.5t-175.5 -50.5q-123 0 -206.5 93t-83.5 206zM322 297q0 -74 40 -143q59 -33 127 -33 q80 -2 164 48t138 124q0 2 4 6l-193 244q-6 8 -20.5 25.5t-20.5 25.5q-239 -139 -239 -297zM324 602q76 57 151 96q0 2 -2 2l-2 5l-6 -5q-96 -59 -141 -98zM367 1139q0 78 56 132t134 54q84 0 137.5 -55.5t53.5 -136.5q0 -78 -42 -134.5t-155 -121.5h2l-18 -11l-95 109 q-69 80 -73 164zM416 1231q43 43 100 67q-65 -16 -100 -67zM489 1036q4 -72 58 -137q102 59 141 111.5t39 122.5q0 29 -10 59q-31 10 -58 10q-70 0 -120 -48t-50 -118zM631 799l8 -8h2q2 2 4 2h-2q119 68 158 129q-59 -64 -170 -123zM975 287v2l2 -8z" />
<glyph unicode="'" horiz-adv-x="409" d="M35 1114l71 148l-18 151l164 12l12 -110l90 8l19 -170l-183 -195l-53 54l72 147l-4 27l-117 -125zM59 1118l29 -28l162 172l-17 143l-122 -10l16 -138z" />
<glyph unicode="(" horiz-adv-x="548" d="M41 590q0 272 73.5 508.5t194.5 363.5l60 -153q14 18 43 51l65 -166q-78 -96 -124 -286.5t-46 -420.5q0 -252 55.5 -452.5t145.5 -286.5l-88 -143q-45 45 -92 119l-11 -17q-123 123 -199.5 360.5t-76.5 522.5zM61 590q0 -279 70 -509.5t182 -340.5l66 108 q-86 84 -140.5 286t-54.5 456q0 233 45 424.5t123 285.5l-49 125q-109 -115 -175.5 -341t-66.5 -494z" />
<glyph unicode=")" horiz-adv-x="548" d="M41 -147q90 86 145.5 285.5t55.5 451.5q0 229 -46 419.5t-124 286.5l61 166q49 -55 92 -129l11 27q121 -131 196.5 -367.5t75.5 -505.5q0 -283 -77 -521t-198 -359l-79 127q-16 -16 -23 -25zM66 -152l67 -108q113 113 182.5 342t69.5 508q0 266 -67.5 492.5t-176.5 342.5 l-47 -125q78 -94 123 -285.5t45 -424.5q0 -254 -54 -456t-142 -286z" />
<glyph unicode="*" horiz-adv-x="946" d="M45 1055v151h193l-138 137l107 109l137 -137v194h152v-102h92l45 45l108 -106l-2 -3l105 -100l-45 -45v-92h102v-154h-196l30 -32q8 -8 15 -13l94 -94l-107 -104l-139 139v-199h-152v103h-94l-43 -43l-108 104l2 2l-105 100l49 50v90h-102zM66 1075h221l-160 -160l80 -75 l158 153v-221h110v225l160 -157l78 75l-160 160h225v113h-223l158 158l-80 77l-158 -157v223h-110v-223l-158 157l-78 -80l158 -157h-221v-111z" />
<glyph unicode="+" horiz-adv-x="899" d="M20 524v152h302v301h151v-103h102v-198h201v-103h103v-151h-304v-303h-151v102h-102v201h-199v102h-103zM41 545h301v-303h111v303h303v110h-303v301h-111v-301h-301v-110z" />
<glyph unicode="," horiz-adv-x="421" d="M35 -111l84 136v151h164v-102h102v-178l-205 -177l-43 68l84 135v23l-143 -123zM59 -111l23 -34l180 153v148h-123v-138z" />
<glyph unicode="-" d="M72 524v152h755v-103h103v-151h-756v102h-102zM92 545h715v110h-715v-110z" />
<glyph unicode="." horiz-adv-x="415" d="M57 -20v196h197v-102h102v-197h-196v103h-103zM78 0h155v156h-155v-156z" />
<glyph unicode="/" horiz-adv-x="825" d="M16 -20l531 1445h160l-39 -102h141l-528 -1446h-162l37 103h-140zM45 0h121l512 1405h-119z" />
<glyph unicode="0" horiz-adv-x="1288" d="M53 698q0 305 160 520.5t381 215.5q211 0 364 -197q125 -96 200 -266t75 -375q0 -303 -156.5 -520t-380.5 -217q-209 0 -364 196q-127 96 -203 268t-76 375zM74 698q0 -295 153.5 -505.5t366.5 -210.5q215 0 365.5 210.5t150.5 505.5q0 297 -150.5 506t-365.5 209 t-367.5 -210t-152.5 -505zM186 698q0 250 120 426t288 176q170 0 287.5 -175t117.5 -427t-117.5 -428t-287.5 -176q-168 0 -288 176t-120 428zM309 596q0 -256 123 -428q76 -53 162 -53q162 0 273.5 170t111.5 413q0 254 -123 426q-80 53 -160 54q-160 0 -273.5 -170 t-113.5 -412z" />
<glyph unicode="1" horiz-adv-x="614" d="M45 1186l289 239h131v-102h102v-1446h-153v103h-103v1044l-32 -27q-4 -2 -23 -20l-109 106zM76 1184l78 -76l178 147v-1255h112v1405h-102z" />
<glyph unicode="2" horiz-adv-x="1044" d="M59 1280q178 154 353 154q117 0 217 -52.5t164 -142.5q88 -63 139 -160.5t51 -208.5q0 -174 -127 -311l-377 -428h402v-102h102v-152h-819v103h-103v131l590 659q78 88 78 203q0 84 -45 157q-80 47 -170 48q-127 0 -242 -111zM82 0h778v111h-620l499 565q121 125 121 297 q0 182 -131 311t-317 129q-166 0 -322 -135l80 -80q109 102 242 102q141 0 239.5 -95t98.5 -232q0 -123 -84 -217l-584 -654v-102z" />
<glyph unicode="3" horiz-adv-x="1048" d="M53 133l107 107q121 -131 266 -131q125 0 213 78.5t88 191.5q0 49 -29 94q-68 45 -149 66h-213v102h-103v152h218q119 6 199.5 76.5t80.5 166.5q0 45 -24 99q-78 45 -172 45q-158 0 -273 -127l-100 106l-2 -4l-105 113q156 166 377 166q121 0 225.5 -52.5t165.5 -140.5 q170 -123 170 -307q0 -98 -53 -183t-141 -139q8 -8 12 -14q172 -125 172 -322q0 -176 -133 -298.5t-322 -122.5q-217 0 -372 176l6 6q-62 41 -109 96zM82 133q139 -156 344 -156q180 0 307 117t127 285q0 104 -56 193.5t-153 142.5q98 49 158.5 134t60.5 187 q0 156 -129 266.5t-309 110.5q-215 0 -350 -145l78 -82q104 117 272 117q131 0 225.5 -78t94.5 -189q0 -102 -87 -179t-212 -85h-199v-110h197q119 -23 208 -104t89 -179q0 -119 -94.5 -205t-227.5 -86q-154 0 -266 123z" />
<glyph unicode="4" d="M23 485l4 129l475 824l133 -74l-21 -35l123 -67l-184 -318h129v-102h102v-203h95v-102h102v-154h-197v-506h-153v103h-103v403h-403l2 102h-104zM43 506h506v-506h113v506h196v112h-196v306h-113v-306h-369l426 738l-96 53l-463 -801zM377 639h151v262z" />
<glyph unicode="5" horiz-adv-x="1128" d="M57 680l54 745h800v-102h103v-154h-656q-6 -57 -14 -143q0 -4 -1 -8t-1 -6q72 23 147 22q227 0 369 -190q96 -72 153.5 -186.5t57.5 -249.5q0 -221 -139 -376t-338 -155q-104 0 -201.5 53.5t-167.5 143.5q-78 59 -129 139l111 111q39 -66 92 -113l10 10q8 -14 25 -39 q74 -51 157 -51q133 0 228.5 111.5t95.5 267.5q0 125 -65 227q-74 45 -156 45q-92 0 -171 -56t-120 -148h-141l6 102h-109zM80 700h106q41 92 123 148.5t180 56.5q143 0 244 -114.5t101 -280.5t-100.5 -282.5t-244.5 -116.5q-88 0 -162.5 48t-125.5 132l-80 -80 q63 -96 161.5 -153.5t206.5 -57.5q190 0 323.5 149.5t133.5 360.5q0 209 -133 356.5t-324 147.5q-178 0 -290 -111q8 78 20 208t19 181h653v113h-762z" />
<glyph unicode="6" horiz-adv-x="1118" d="M55 676v43q0 201 27 332q31 160 154.5 270.5t289.5 114.5q233 0 398 -207q63 -51 112 -115l-145 -86q-109 152 -260 152q-111 0 -198 -77t-105 -194q-6 -31 -15 -96q82 41 185 47q115 0 216 -51t165 -139q180 -129 182 -346v-19q0 -188 -130 -316t-321 -128 q-223 0 -358 182q-178 129 -189 356v-2q-8 89 -8 279zM76 676q0 -188 8 -277v2q8 -178 130 -297.5t294 -119.5q180 0 305 122.5t125 301.5v18q-2 178 -132 296t-308 118q-203 -10 -320 -162v16q0 180 27 322q20 123 112.5 205t210.5 82q76 0 146.5 -39t120.5 -107l108 66 q-147 193 -377 192q-158 -4 -276.5 -109.5t-147.5 -258.5q-27 -131 -26 -328v-43zM195 401q0 133 91 230.5t222 97.5t224 -88t97 -219v-19q0 -127 -93 -219t-224 -92q-129 0 -223 91t-94 218zM317 299q0 -78 39 -143q68 -43 156 -43q123 0 210 85t87 205v19q-4 78 -41 141 q-76 43 -158 43q-123 0 -208 -91t-85 -216z" />
<glyph unicode="7" horiz-adv-x="1024" d="M35 -20l553 1189h-385v103h-103v153h785l-49 -102h151l-676 -1446h-174l47 103h-149zM68 0h129l655 1405h-731v-113h549z" />
<glyph unicode="8" horiz-adv-x="1081" d="M55 395q0 109 52.5 205t140.5 158q-147 104 -148 297q0 156 115 267.5t272 111.5q102 0 188.5 -46.5t139.5 -125.5q168 -115 168 -310q0 -190 -143 -295q2 -4 8 -10q178 -129 178 -354q0 -180 -127 -307t-309 -127q-104 0 -197.5 49t-152.5 133q-84 59 -134.5 153.5 t-50.5 200.5zM76 395q0 -170 120.5 -291.5t290.5 -121.5q174 0 295 120.5t121 292.5q0 115 -56 211t-153 152q166 96 166 297q0 147 -108.5 252.5t-264.5 105.5q-152 0 -259 -105.5t-107 -252.5q0 -197 166 -297q-92 -55 -151.5 -153.5t-59.5 -209.5zM188 395 q0 125 89.5 214t209.5 89q127 0 216.5 -89t89.5 -214q0 -123 -89.5 -212t-216.5 -89q-121 0 -210 90t-89 211zM231 1055q0 102 76 173.5t180 71.5q109 0 183.5 -71.5t74.5 -174t-75.5 -174t-182.5 -71.5q-104 0 -180 73t-76 173zM311 293q0 -74 39 -141q68 -37 137 -37 q117 0 201 83t84 197q0 74 -39 142q-66 39 -143 38q-115 0 -197 -82.5t-82 -199.5zM354 952q0 -51 23 -96q47 -27 110 -27q98 0 168 66t70 160q0 51 -23 96q-57 27 -112 27q-96 0 -166 -66t-70 -160z" />
<glyph unicode="9" horiz-adv-x="1122" d="M55 973v14q0 184 131 316.5t318 132.5q221 0 358 -189q84 -59 136.5 -153.5t60.5 -200.5q6 -86 6 -283v-53q0 -182 -25 -311q-33 -170 -165 -276.5t-306 -106.5q-104 0 -205.5 55t-175.5 148q-55 43 -102 102l135 113q41 -61 101 -105l2 2q0 -2 2 -4t2 -4q74 -49 153 -49 q117 0 203 74.5t111 187.5v-2q12 102 12 106q-94 -47 -204.5 -47t-208 50.5t-158.5 138.5q-82 59 -130.5 149.5t-50.5 194.5zM76 973q2 -170 128 -290t296 -120q98 0 187 42t151 112v-25q0 -162 -23 -313q-27 -121 -118 -200t-216 -79q-160 0 -264 150l-102 -84 q66 -82 160 -131t192 -49q166 0 293 102t158 264q25 129 24 307v54q0 195 -6 280q-14 174 -138 298t-294 124q-178 0 -303 -126t-125 -302v-14zM182 977q0 131 94.5 227t229.5 96q125 0 221 -92t96 -217q0 -133 -94 -225t-229 -92q-125 0 -217.5 88t-100.5 215zM305 877 q2 -72 43 -140q74 -43 152 -43q127 0 215 86t88 211q0 76 -41 142q-72 45 -154 45q-125 0 -214 -90t-89 -211z" />
<glyph unicode=":" horiz-adv-x="432" d="M66 -20v196h196v-102h103v-197h-197v103h-102zM66 848v196h196v-102h103v-197h-197v103h-102zM86 0h156v156h-156v-156zM86 868h156v156h-156v-156z" />
<glyph unicode=";" horiz-adv-x="456" d="M43 -111l84 136v151h166v-102h102v-178l-207 -177l-43 68l84 135v23l-143 -123zM68 -111l22 -34l182 153v148h-125v-138zM117 848v196h194v-102h103v-197h-195v103h-102zM137 868h154v156h-154v-156z" />
<glyph unicode="&#x3c;" horiz-adv-x="808" d="M31 508l532 539l111 -107l-2 -2l104 -100l-428 -432l10 -11q6 -6 9 -10l77 -74l230 -225l-2 -2l104 -100l-108 -111l-103 102l-432 431zM59 508l506 -504l80 82l-428 422l428 432l-82 78z" />
<glyph unicode="=" horiz-adv-x="983" d="M72 379v156h735v-103h102v-156h-735v103h-102zM72 764v158h735v-103h102v-157h-735v102h-102zM92 399h694v115h-694v-115zM92 784h694v117h-694v-117z" />
<glyph unicode="&#x3e;" horiz-adv-x="808" d="M31 86l426 422l-82 82q-37 35 -117 119l-227 231l108 107l103 -103l534 -538l-534 -533l-103 104v-2zM59 86l80 -82l506 504l-506 510l-80 -78l428 -432z" />
<glyph unicode="?" horiz-adv-x="899" d="M29 1225q59 96 150 152.5t192 56.5q205 0 323 -172q82 -55 129 -146.5t47 -195.5q0 -164 -114.5 -284t-276.5 -120h-61q6 -23 41 -131l149 -508h-78q16 -23 17 -55q0 -10 -2 -17q6 2 18 2q39 0 62.5 -23.5t23.5 -64.5q0 -39 -23.5 -65.5t-62.5 -26.5q-35 0 -61.5 28 t-26.5 64v13q-4 -2 -14 -2q-35 0 -61.5 27.5t-26.5 64.5q0 68 63 86l-20 72h-74l-188 663v127h223q102 4 171.5 76t69.5 176q0 68 -32 129q-53 29 -113 29q-66 0 -127 -45t-106 -121zM53 1229l80 -80q90 154 238 154q111 0 189.5 -82t78.5 -199q0 -113 -76 -190.5 t-186 -81.5h-203v-101l184 -649h119l-188 639h88q154 0 262.5 113.5t108.5 269.5q0 162 -111 276.5t-266 114.5q-96 0 -180.5 -50t-137.5 -134zM393 -178.5q0 -28.5 20.5 -50t47.5 -21.5q31 0 48 20.5t17 51.5q0 68 -65 67q-27 0 -47.5 -19.5t-20.5 -48z" />
<glyph unicode="@" horiz-adv-x="1634" d="M55 664q0 332 204 551t529 219q158 0 296.5 -62.5t226.5 -177.5q219 -168 219 -457q0 -195 -115 -364h62l-29 -68q-2 -4 -21 -35h152l-29 -67q-76 -137 -244.5 -230.5t-398.5 -93.5q-418 0 -618 256q-234 183 -234 529zM76 664q0 -317 199.5 -489.5t529.5 -172.5 q223 0 389 92t240 228l12 30h-154q-66 -96 -193.5 -157.5t-295.5 -61.5q-283 0 -441.5 143.5t-158.5 399.5q0 260 166 433t413 173q217 0 356.5 -129t139.5 -311q0 -53 -15.5 -132t-35.5 -122q-37 -78 -104.5 -134.5t-112.5 -56.5q-53 0 -64.5 26t-5.5 75q2 12 2 47l4 299 h-4q-18 283 -186 289q-98 0 -166 -23l-25 -2l29 -117l27 2q55 20 133 21q76 0 80 -195h-146q-115 0 -194.5 -77.5t-79.5 -192.5t77.5 -195t188.5 -80q92 0 166 58q37 -45 151 -51q174 23 292 193.5t118 365.5q0 262 -181.5 417.5t-437.5 155.5q-317 0 -514.5 -212.5 t-197.5 -536.5zM326 573q0 -188 90 -315q133 -90 319 -102q-131 23 -198 135q-66 39 -105 107.5t-39 150.5q0 123 86 207t209 84h125q0 20 -4 49q-43 -4 -84 -19l-45 -2l-29 115q-4 -2 -14 -5t-14 -5l-45 -2l-21 84q-109 -80 -170 -206t-61 -276zM512 548.5q0 69.5 51 116 t125 46.5h158v-162q0 -70 -49 -118t-117 -48q-70 0 -119 48t-49 117.5zM559 629q8 12 14 16q-6 -4 -14 -16zM635 446q0 -14 4 -38q25 -4 41 -5q59 0 102 43t43 103v39h-34q-66 0 -111 -40.5t-45 -101.5zM782 1149q90 -14 138 -111q123 -47 149 -295q-4 -158 -4 -301v-6 q92 53 143 160q18 41 33.5 118t15.5 128q0 125 -73 227q-127 90 -299 90q-48 0 -103 -10zM813 154q90 0 174 22q-25 10 -41 27q-59 -39 -133 -49z" />
<glyph unicode="A" horiz-adv-x="1353" d="M31 -20l536 1456h117l37 -103h65l537 -1456h-160l-39 103h-63l-176 473h-377l-139 -373l-78 -203h-158l37 103h-139zM59 0h117l215 575h469l215 -575h117l-520 1415h-92zM432 688l193 520l194 -520h-387zM600 709h193l-82 215v-2q-12 29 -17 43q-16 -41 -30 -84v-2z" />
<glyph unicode="B" horiz-adv-x="1138" d="M63 -20v1456h478q104 -2 194 -51.5t144 -127.5q76 -53 120.5 -131.5t44.5 -167.5q0 -188 -159 -305q2 -4 6 -8q84 -59 133 -149t49 -191q0 -172 -124 -297t-304 -127h2l-39 -4h-442v103h-103zM84 0h422l37 4h-2q172 2 290.5 121t118.5 283q0 106 -57 199t-154 145 q82 51 132.5 132t50.5 177q0 141 -112 246.5t-269 107.5h-457v-1415zM197 113v583h344q125 -8 211 -92t86 -196q0 -117 -86 -203t-211 -92h-344zM197 809v498h344q113 -6 190.5 -78t77.5 -168q0 -104 -77 -176t-191 -76h-344zM319 133h222q115 6 195.5 86t80.5 189 q0 66 -35 122q-61 37 -141 43h-322v-440zM319 829h222q104 4 175.5 69t71.5 163q0 43 -22 88q-57 29 -125 35h-322v-355z" />
<glyph unicode="C" horiz-adv-x="1339" d="M45 707q0 297 195.5 517t470.5 220q268 0 479 -227l-6 -7q47 -35 108 -96l-106 -104q-174 178 -373 178q-209 0 -359.5 -171t-150.5 -413q0 -223 127 -393q127 -94 281 -94q193 0 368 176l107 -105l-2 -2l104 -100q-217 -227 -475 -227q-137 0 -265 65.5t-222 179.5 q-129 106 -205 264.5t-76 338.5zM66 707q0 -295 193.5 -510t451.5 -215q250 0 446 206l-78 76q-168 -168 -368 -168q-225 0 -378 179.5t-153 431.5q0 250 157 427t374 177q209 0 372 -170l78 76q-190 207 -450 206q-266 0 -455.5 -213.5t-189.5 -502.5z" />
<glyph unicode="D" horiz-adv-x="1294" d="M63 -20v1456h547q205 -4 353 -193q123 -96 195.5 -265t72.5 -370q0 -299 -148.5 -511t-365.5 -220h-551v103h-103zM84 0h530q207 8 350.5 214t143.5 496.5t-145.5 496.5t-352.5 208h-526v-1415zM197 113v1190h413q162 -2 273.5 -175.5t111.5 -416.5q0 -242 -111.5 -416 t-269.5 -178q-68 0 -207.5 -2t-209.5 -2zM319 133q57 0 89 2q35 0 104.5 1t101.5 1q150 4 255.5 172t105.5 402q0 250 -121 422q-66 43 -141 47h-394v-1047z" />
<glyph unicode="E" horiz-adv-x="1118" d="M74 -20v1456h868v-103h102v-149h-714v-355h508v-102h102v-154h-610v-440h612v-102h102v-154h-868v103h-102zM94 0h828v113h-715v583h610v113h-610v498h715v108h-828v-1415z" />
<glyph unicode="F" horiz-adv-x="1058" d="M43 -20v1456h868v-103h103v-147h-715v-357h508v-102h102v-154h-610v-696h-154v103h-102zM63 0h113v696h610v113h-610v500h715v106h-828v-1415z" />
<glyph unicode="G" horiz-adv-x="1355" d="M51 700q0 305 195.5 524.5t472.5 219.5q264 0 481 -227l-6 -7q55 -43 109 -96l-107 -106q-174 178 -375 178q-215 0 -365.5 -171t-150.5 -417q0 -223 127 -389q131 -98 287 -98q174 0 313 122v246h-280v103h-103v149h537v-102h102v-545l-4 -21q-199 -205 -463 -204 q-145 0 -273 64.5t-220 178.5q-129 102 -203 260t-74 338zM72 700q0 -297 190.5 -507.5t456.5 -210.5q256 0 442 192l4 16v521h-495v-109h383v-377q-145 -135 -334 -135q-221 0 -379 179.5t-158 430.5q0 254 158 431.5t379 177.5q211 0 375 -170l77 78q-197 207 -452 206 q-266 0 -456.5 -212t-190.5 -511z" />
<glyph unicode="H" horiz-adv-x="1259" d="M78 -20v1456h153v-103h103v-504h594v607h151v-103h103v-1456h-152v103h-102v593h-594v-696h-154v103h-102zM98 0h113v696h737v-696h111v1415h-111v-606h-737v606h-113v-1415z" />
<glyph unicode="I" horiz-adv-x="411" d="M78 -20v1456h153v-103h103v-1456h-154v103h-102zM98 0h113v1415h-113v-1415z" />
<glyph unicode="J" horiz-adv-x="690" d="M41 80l102 106q66 -72 109 -71q57 0 97 66.5t40 166.5v1088h156v-103h102v-1083q0 -158 -87 -274.5t-206 -116.5q-106 0 -211 118l9 11q-60 31 -111 92zM70 80q88 -98 182 -98q111 0 191.5 110.5t80.5 259.5v1063h-114v-1067q0 -109 -46.5 -181.5t-111.5 -72.5 q-51 0 -109 64z" />
<glyph unicode="K" horiz-adv-x="1333" d="M59 -20v1456h154v-103h102v-471l494 574h207l-88 -103h190l-549 -639l703 -817h-203l-88 103h-14l-508 591q-41 -55 -62 -75l-82 -97v-522h-153v103h-103zM80 0h113v512l174 201l610 -713h145l-682 799l529 616h-150l-626 -731v731h-113v-1415z" />
<glyph unicode="L" horiz-adv-x="1015" d="M41 -20v1456h152v-103h102v-1200h575v-102h103v-154h-830v103h-102zM61 0h789v113h-678v1302h-111v-1415z" />
<glyph unicode="M" horiz-adv-x="1413" d="M80 -20v1456h139l62 -103h41l358 -602l410 705h141v-103h102v-1456h-155v103h-103v854l-268 -465h-94l-62 102h-41l-274 463v-1057h-154v103h-102zM100 0h113v1184l410 -692h69l404 692v-1184h114v1415h-108l-443 -760l-452 760h-107v-1415z" />
<glyph unicode="N" horiz-adv-x="1216" d="M80 -20v1456h137l59 -103h43l562 -950v1053h153v-103h103v-1456h-140l-61 103h-41l-561 954v-1057h-152v103h-102zM100 0h111v1186l696 -1186h107v1415h-113v-1179l-696 1179h-105v-1415z" />
<glyph unicode="O" horiz-adv-x="1538" d="M53 707q0 307 194.5 522t471.5 215q147 0 276 -63.5t219 -176.5q127 -102 199 -259t72 -341q0 -328 -203 -541q-188 -205 -461 -204q-141 0 -270 64.5t-223 178.5q-127 102 -201 260.5t-74 344.5zM74 707q0 -305 191.5 -515t453.5 -210q264 0 446 198q197 207 197 527 q0 301 -184.5 508.5t-458.5 207.5q-268 0 -456.5 -209.5t-188.5 -506.5zM188 707q0 252 155 427t376 175t364 -160q170 -174 170 -442q0 -256 -153.5 -433.5t-380.5 -177.5q-223 0 -377 177.5t-154 433.5zM311 604q0 -227 127 -393q127 -94 281 -94q219 0 366.5 171 t147.5 419q0 219 -125 380q-127 98 -287 99q-213 0 -361.5 -170t-148.5 -412z" />
<glyph unicode="P" horiz-adv-x="1052" d="M45 -20v1456h432q115 0 211 -49.5t154 -133.5q164 -115 164 -295q0 -162 -124 -274.5t-302 -112.5h-281v-694h-152v103h-102zM66 0h110v694h301q170 0 288 106.5t118 260.5q0 145 -119 249.5t-287 104.5h-411v-1415zM176 807v500h297q123 0 210 -73t87 -173 q0 -109 -86 -181.5t-207 -72.5h-301zM299 827h178q113 0 193 68t80 166q0 39 -21 84q-72 39 -154 39h-276v-357z" />
<glyph unicode="Q" horiz-adv-x="1427" d="M43 754q0 291 182.5 490.5t433.5 199.5q135 0 256 -62.5t209 -171.5q119 -96 188.5 -242.5t69.5 -316.5q0 -295 -196 -497q-100 -109 -236 -156l45 -39l-6 -6l109 -96q-88 -115 -168 -115q-92 0 -156 115q-70 29 -112 118q-213 47 -361 228q-119 96 -188.5 239.5 t-69.5 311.5zM63 754q0 -268 173.5 -461t410.5 -207q16 -92 66.5 -156.5t113.5 -64.5q68 0 140 92l-80 70q-27 -55 -60 -56q-53 0 -75 123q188 35 317 176q190 197 191 484q0 281 -177.5 475t-423.5 194q-244 0 -420 -193t-176 -476zM168 754q0 236 144.5 402.5t346.5 166.5 q188 0 332 -154q160 -166 160 -415q0 -205 -115.5 -361.5t-287.5 -197.5q-14 66 -70 108q-53 41 -124 41h-7v-100h4q64 0 86 -58q-199 10 -334 175.5t-135 392.5zM291 651q0 -207 115 -360q59 -43 120 -64v138h9q75 0 133 -35q61 -37 88 -97q10 -4 20 -10q152 51 253 198.5 t101 332.5q0 207 -118 358q-115 88 -250 88q-195 0 -333 -161t-138 -388zM317 1130q59 63 105 97q-58 -40 -105 -97zM932 -111q16 4 33 33z" />
<glyph unicode="R" horiz-adv-x="1142" d="M57 -20v1456h432q117 0 214.5 -50.5t154.5 -134.5q162 -111 162 -295q0 -160 -125 -271.5t-303 -111.5h-123l270 -309l344 -387h-200l-92 103h-11l-467 524v-627h-153v103h-103zM78 0h112v676l598 -676h146l-615 696h170q170 0 289 106.5t119 256t-119 253t-289 103.5 h-411v-1415zM190 809v500h295q123 0 211 -74t88 -176q0 -104 -87 -177t-208 -73h-299zM313 829h176q113 0 194 67t81 163q0 45 -23 86q-72 41 -153 41h-275v-357z" />
<glyph unicode="S" horiz-adv-x="1081" d="M49 190l121 97q37 -61 98 -105l4 2l4 -8q90 -61 201 -61q117 0 203 69.5t86 169.5q0 55 -33 111q-68 43 -143 55q-233 31 -361 205q-172 129 -172 313q0 172 134.5 288t326.5 116q238 0 410 -191l-6 -6q49 -35 108 -96l-125 -100q-115 143 -284 143q-121 0 -212.5 -72.5 t-91.5 -175.5q0 -63 33 -123q70 -41 154 -47q231 -33 348 -199q174 -127 174 -317q0 -168 -131 -283.5t-320 -115.5q-121 0 -227 55t-180 149q-68 49 -119 127zM76 186q63 -94 167.5 -149t229.5 -55q178 0 304 110.5t126 267.5q0 145 -114.5 258t-286.5 136q-131 10 -219 95 t-88 198q0 111 97 189.5t226 78.5q180 0 289 -135l92 73q-152 168 -381 168q-184 0 -312 -109.5t-128 -273.5q0 -150 117.5 -262t293.5 -133q125 -18 211 -101t86 -188q0 -109 -92 -184.5t-217 -75.5q-205 0 -311 164z" />
<glyph unicode="T" horiz-adv-x="1218" d="M29 1286v150h1058v-103h103v-149h-451v-1307h-153v103h-103v1204h-352v102h-102zM49 1307h455v-1307h112v1307h451v108h-1018v-108z" />
<glyph unicode="U" horiz-adv-x="1335" d="M72 358v1078h159v-103h103v-1073q6 -39 24 -67q113 -76 267 -76q143 0 254.5 73.5t128.5 171.5v1074h153v-103h103v-1075q-6 -164 -165 -281.5t-372 -117.5q-156 0 -286 60.5t-201 160.5q-160 116 -168 278zM92 360q10 -156 165 -267t368 -111q205 0 357.5 111.5 t158.5 266.5v1055h-113v-1055q-14 -106 -132 -185t-271 -79q-160 0 -280 79t-134 185v1055h-119v-1055z" />
<glyph unicode="V" horiz-adv-x="1376" d="M33 1436h157l37 -103h66l375 -1007l153 407l260 703h160l-39 -103h141l-538 -1456h-133l-39 103h-64zM61 1415l521 -1415h108l522 1415h-118l-457 -1235l-459 1235h-117z" />
<glyph unicode="W" horiz-adv-x="1927" d="M43 1436h160l37 -103h65l375 -1009l51 139v-2l98 268l-122 338v-2l-136 371h158l37 -103h65l213 -575q12 -37 117 -309q6 -14 47 -127l58 158l77 212l275 744h162l-39 -103h141l-536 -1456h-138l-39 103h-63l-127 337l-51 -145l-107 -295h-137l-39 103h-63zM72 1415 l522 -1415h111l204 561l209 -561h113l520 1415h-121l-454 -1235l-252 674l-207 561h-117l250 -684l-201 -553l-459 1237h-118z" />
<glyph unicode="X" horiz-adv-x="1282" d="M63 -20l435 743l-416 713h176l61 -103h41l258 -432l136 229l182 306h178l-59 -103h162l-424 -725l198 -346l226 -385h-179l-61 103h-41l-268 452l-187 -319l-139 -236h-176l59 103h-162zM100 0h127l359 610l362 -610h129l-411 711l411 704h-129l-350 -590l-352 590h-127 l403 -692z" />
<glyph unicode="Y" horiz-adv-x="1515" d="M27 1436h200l74 -103h29l387 -532l112 151l359 484h198l-77 -103h180l-602 -805v-651h-156v103h-102v651l-168 223zM68 1415l581 -778v-637h115v637l582 778h-148l-493 -667l-488 667h-149z" />
<glyph unicode="Z" horiz-adv-x="1304" d="M59 -20l750 1200h-561v102h-103v154h998l-64 -103h166l-743 -1200h545v-102h102v-154h-987l63 103h-166zM94 0h932v113h-727l809 1302h-942v-112h741z" />
<glyph unicode="[" horiz-adv-x="509" d="M45 645v152h76q23 0 38 16t15 39v465q8 47 62.5 77.5t125.5 30.5v-122q47 20 103 20v-156q-8 0 -23 -2q-10 -2 -12 0v-442q-29 -84 -86 -94v-21q68 -20 86 -84v-495h35v-152q-61 0 -120.5 34t-68.5 85q-102 39 -102 113v434h-27v94q-10 8 -26 8h-76zM66 666h55 q31 0 52.5 -21.5t21.5 -54.5v-481q0 -45 49 -77t98 -32v111q-35 0 -35 -2v512q-20 63 -86 73v56q59 6 86 75v471q2 -6 35 -6v115q-55 0 -97 -25.5t-50 -66.5v-461q0 -31 -21.5 -53.5t-52.5 -22.5h-55v-110zM242 711q2 -2 7 -4t7 -2q18 18 20 40q-14 -10 -34 -14v-20z" />
<glyph unicode="\" horiz-adv-x="813" d="M10 1425h160l37 -102h65l531 -1446h-162l-39 103h-63zM39 1405l512 -1405h121l-514 1405h-119z" />
<glyph unicode="]" horiz-adv-x="503" d="M43 -20v151h39v492q16 78 80 90q0 4 1 11t1 9q-68 25 -82 88v449h-39v155q76 0 127 -30.5t61 -77.5l2 -8q88 -29 101 -95l4 -16v-401h20v-95q12 -8 27 -8h76v-151h-76q-20 0 -33.5 -15.5t-13.5 -40.5v-481q0 -53 -61.5 -91t-131.5 -38v125q-51 -22 -102 -22zM63 0 q55 0 103.5 31.5t48.5 77.5v481q0 33 18.5 54.5t49.5 21.5h55v110h-55q-31 0 -49.5 22.5t-18.5 53.5v448l-4 13q-8 39 -48 65.5t-100 26.5v-115h39v-465q6 -27 30 -48t54 -27q-4 -41 -4 -56q-63 -4 -80 -76v-503q-12 -4 -39 -4v-111zM236 600q16 8 28 10q0 4 1 11.5t1 9.5 q-2 0 -5 2t-5 2q-18 -15 -20 -35z" />
<glyph unicode="^" horiz-adv-x="1239" d="M33 907l538 533l103 -103l532 -534l-110 -109l-103 103l-321 325l-201 -200l-229 -228l-101 105l-2 -2zM61 907l78 -82l432 428l422 -428l82 80l-504 506z" />
<glyph unicode="_" horiz-adv-x="1155" d="M72 -20v151h907v-102h102v-152h-907v103h-102zM92 0h866v111h-866v-111z" />
<glyph unicode="`" horiz-adv-x="565" d="M16 1393h248l76 -103h27l180 -241h-123l-305 241h26zM76 1372l252 -201h75l-149 201h-178z" />
<glyph unicode="a" horiz-adv-x="976" d="M51 295q0 145 108.5 241.5t260.5 96.5h192v8q0 84 -30 150q-14 6 -45 10q-119 0 -256 -39l-31 121l-72 -19l-37 148q152 45 295 45q158 -4 256 -152q76 -47 123 -134t53 -191v-21q-4 -172 -4 -336q0 -281 60 -346h-209v41q-94 -61 -207 -61q-94 0 -174 44t-129 117 q-70 45 -112 119t-42 158zM72 295q0 -131 98 -223t236 -92q129 0 227 81v-61h141q-33 35 -33 326l4 336v20q-8 145 -97 248.5t-212 105.5q-137 0 -270 -39l27 -106q113 33 241 33q88 -2 143.5 -84t55.5 -199v-29h-213q-143 0 -245.5 -91t-102.5 -226zM184 295q0 90 69 148.5 t167 58.5h213v-207q0 -84 -66.5 -142.5t-160.5 -58.5q-92 0 -157 58.5t-65 142.5zM307 193q0 -31 10 -62q43 -16 89 -16q86 0 146 52t60 128v84h-90q-90 0 -152.5 -52t-62.5 -134z" />
<glyph unicode="b" horiz-adv-x="1171" d="M45 -20q18 27 31.5 82t17.5 98l2 41v1224h154v-102h102v-283q76 16 158 17q117 0 221.5 -54.5t173.5 -148.5q100 -76 159.5 -194.5t59.5 -251.5q0 -223 -150.5 -385t-363.5 -166q-172 10 -264 53v-33h-199q23 33 37 103h-139zM84 0h139v47q102 -57 287 -67 q205 4 348 158.5t143 371.5q0 215 -144 370.5t-347 155.5q-170 0 -281 -63v432h-112v-1204q-8 -166 -33 -201zM223 201v626q14 39 97 68t190 29q154 0 267.5 -124t113.5 -290q0 -170 -112.5 -292t-268.5 -126q-119 4 -203 35t-84 74zM346 133q78 -18 164 -20 q147 4 253.5 119.5t106.5 277.5q0 123 -73 233q-90 57 -185 58q-98 0 -175 -22.5t-91 -53.5v-592z" />
<glyph unicode="c" horiz-adv-x="1103" d="M49 508q0 227 150.5 388t359.5 161q217 0 391 -191l-6 -6q59 -43 109 -96l-111 -113q-125 150 -280 150q-147 0 -253 -116t-106 -279q0 -133 70 -234q82 -57 186 -57q152 0 275 143l112 -108l-2 -3l105 -100q-182 -188 -387 -188q-117 0 -220.5 54t-175.5 148 q-100 76 -158.5 194t-58.5 253zM70 508q0 -217 144 -371.5t345 -154.5q197 0 359 168l-82 77q-117 -133 -277 -133q-156 0 -267.5 122t-111.5 292q0 174 110.5 295t268.5 121q164 0 283 -140l80 82q-156 170 -363 170q-201 0 -345 -155.5t-144 -372.5z" />
<glyph unicode="d" horiz-adv-x="1185" d="M41 516q0 223 150.5 381t361.5 160q166 0 260 -51v419h152v-102h102v-1221q0 -18 2 -45.5t21.5 -87t54.5 -86.5h-230v33q-104 -43 -258 -53q-119 2 -223 57t-176 150q-100 78 -158.5 194.5t-58.5 251.5zM61 516q0 -217 144.5 -371.5t347.5 -158.5q170 10 281 65v-45h149 q-16 14 -26.5 63.5t-10.5 92.5l-2 43v1200h-110v-434q-104 66 -281 65q-203 -2 -347.5 -153.5t-144.5 -366.5zM170 516q0 164 111.5 284t271.5 124q111 0 190.5 -28t90.5 -67v-624q0 -39 -80 -71t-197 -38q-162 6 -274.5 128t-112.5 292zM293 414q0 -133 69 -234 q90 -61 193 -63q109 6 183.5 31.5t74.5 56.5v575q-72 20 -158 21q-150 -4 -256 -117.5t-106 -269.5z" />
<glyph unicode="e" horiz-adv-x="1054" d="M47 471v39q0 227 127 388t305 161q190 0 316 -172q98 -68 155.5 -193t57.5 -276v-82h-701q12 -106 64 -186q59 -37 131 -37q102 0 274 84l55 -125q23 8 48 22l59 -135q-135 -74 -279 -98q-16 -2 -55 -2q-201 0 -340 182q-92 70 -150.5 182.5t-66.5 247.5zM68 473 q12 -207 138 -349t296 -142q37 0 53 2q141 27 254 88l-43 98q-156 -78 -264 -78q-127 2 -218 105.5t-102 261.5h703v61q0 219 -117 368.5t-289 149.5q-170 0 -290.5 -155.5t-120.5 -372.5v-37zM184 567q20 152 103.5 254.5t191.5 102.5q115 0 199 -101.5t98 -255.5h-592z M340 588h412q-16 109 -64 182q-49 31 -106 31q-76 0 -140.5 -58.5t-101.5 -154.5z" />
<glyph unicode="f" horiz-adv-x="768" d="M27 868v154h147l-2 14v27q8 152 103.5 261.5t222.5 109.5q59 0 141 -11l-27 -92q39 0 129 -10l-45 -154q-53 12 -96 13q-57 -2 -101 -46t-63 -112h150v-102h102v-154h-262v-889h-147v103h-103v786h-47v102h-102zM47 889h150v-889h106v889h262v112h-262v39q0 106 56.5 182 t138.5 81q47 0 82 -9l32 113q-49 6 -114 6q-119 0 -208 -103.5t-97 -246.5v-25q2 -25 2 -37h-148v-112z" />
<glyph unicode="g" horiz-adv-x="1271" d="M43 -66q0 88 53.5 166t141.5 125q-8 25 -9 78q0 47 25 100q-131 109 -131 275q0 156 126 267.5t304 111.5q78 0 160 -23h413l-98 -102h201l-146 -152h-61q66 -96 65 -205q0 -137 -96 -238t-246 -128q68 -43 115 -113q154 -104 154 -264q0 -145 -127 -249.5t-309 -104.5 q-119 0 -221.5 51t-157.5 135q-156 108 -156 270zM63 -66q0 -137 122 -235t290 -98q172 0 294 98t122 235.5t-121 232.5t-295 95q-35 0 -49 -4h-10q-2 0 -10.5 -1t-10.5 -1q-57 0 -57 51q0 39 53 39q23 0 64 -10q53 -12 98 -12q172 0 292 103t120 251q0 123 -88 225h96 l106 111h-372q-82 23 -154 22q-170 0 -290 -105.5t-120 -252.5q0 -168 140 -270q-33 -39 -33 -105q0 -53 14 -88q-90 -43 -145.5 -119t-55.5 -162zM172 -65.5q0 90.5 91 158t212 67.5q129 0 219 -67.5t90 -158.5q0 -92 -90 -158.5t-219 -66.5q-121 0 -212 67.5t-91 158z M254 678q0 104 88 177t211 73q129 0 217 -72t88 -178q0 -102 -88 -175t-217 -73q-123 0 -211 73t-88 175zM295 -168q0 -31 12 -61q78 -41 168 -41q121 0 205 60t84 144q0 25 -14 62q-78 41 -172 41q-113 0 -198 -61.5t-85 -143.5zM377 575q0 -47 20 -86q68 -39 156 -38 q119 0 202 66.5t83 160.5q0 41 -21 86q-78 41 -162 41q-117 0 -197.5 -67t-80.5 -163z" />
<glyph unicode="h" horiz-adv-x="976" d="M51 -20v1450h152v-103h102v-295q68 27 141 27q186 0 297 -162q78 -53 125 -142t50 -196l6 -676h-152v103h-102v676q-2 63 -33 118q-53 25 -100 25q-76 0 -142.5 -66.5t-89.5 -154.5v-707h-151v103h-103zM72 0h110v690q23 96 94.5 167t157.5 71q102 0 177 -77t79 -189 v-656h111l-6 656q-4 158 -103.5 267t-245.5 109q-158 0 -264 -125v496h-110v-1409z" />
<glyph unicode="i" horiz-adv-x="397" d="M55 1309q0 37 27 62.5t65 25.5q35 0 64 -27t29 -61q0 -10 -2 -15h12q35 0 63.5 -26.5t28.5 -61.5q0 -33 -28.5 -60.5t-63.5 -27.5q-39 0 -65.5 26.5t-26.5 61.5v15h-11q-39 0 -65.5 26.5t-26.5 61.5zM72 -20v1064h149v-102h103v-1065h-150v103h-102zM76 1309 q0 -27 20.5 -47.5t50.5 -20.5q29 0 50.5 20.5t21.5 47t-21.5 47t-50.5 20.5q-31 0 -51 -19t-20 -48zM92 0h109v1024h-109v-1024z" />
<glyph unicode="j" horiz-adv-x="638" d="M35 -408l14 148q57 0 86 -4q6 -2 8 -2l7 6q82 0 137 67.5t55 163.5v1076h152v-103h102v-1096q-10 -152 -101.5 -257t-224.5 -109q-23 0 -75 4q-16 4 -58 4l8 94q-33 4 -53 4q-16 4 -57 4zM57 -387q20 0 45 -4q41 -4 66 -4q123 4 209 104.5t96 243.5v1073h-111v-1055 q0 -104 -59 -178t-145 -74q-2 -2 -2 -6q-16 0 -27 2q-29 4 -61 4zM326 1298q0 41 24.5 64.5t65.5 23.5q33 0 59.5 -24.5t26.5 -63.5q0 -10 -2 -16q6 2 18 2q33 0 59.5 -24.5t26.5 -63.5q0 -35 -27.5 -61.5t-58.5 -26.5q-41 0 -65.5 25.5t-24.5 62.5v14h-12q-41 0 -65.5 25.5 t-24.5 62.5zM346 1298q0 -29 19.5 -48t50.5 -19q25 0 45 20.5t20 46.5q0 29 -20.5 48.5t-44.5 19.5q-33 0 -51.5 -18.5t-18.5 -49.5z" />
<glyph unicode="k" horiz-adv-x="1036" d="M35 -20q59 59 59 124v1321h152v-102h102v-485l123 104l104 90h240l-123 -102h226l-355 -295l125 -215l311 -543h-180l-59 103h-43l-301 528q-41 -39 -68 -57v-574h-211q43 43 56 103h-158zM84 0h141v563q41 33 123 107l381 -670h131l-426 743l324 269h-172l-361 -303v696 h-110v-1301q0 -73 -31 -104z" />
<glyph unicode="l" horiz-adv-x="405" d="M76 -20v1445h151v-102h103v-1446h-152v103h-102zM96 0h111v1405h-111v-1405z" />
<glyph unicode="m" horiz-adv-x="1675" d="M66 1044h210v-83q100 94 240 94q186 0 299 -164q8 -4 12 -8q51 88 134 132t172 44q184 0 294 -162q78 -53 126.5 -142t50.5 -196l4 -678h-154v103h-102v678q-2 63 -33 118q-45 23 -92 23q-80 0 -146.5 -65.5t-87.5 -153.5v-703h-151v103h-103v673q-2 63 -30 117 q-53 25 -101 25q-76 0 -141.5 -66.5t-87.5 -152.5v-703h-152v103h-102v933q0 27 -20.5 70t-38.5 61zM115 1024q10 -10 20 -46t10 -65v-913h111v686q20 96 92 166t158 70q104 0 178 -76t76 -189v-653h110v686q18 96 90 166t164 70q100 0 172 -77t76 -187v-658h113l-4 658 q-4 160 -104.5 268t-243.5 108q-92 0 -177.5 -51t-130.5 -151q-47 88 -130 143t-179 55q-154 0 -260 -125v115h-141z" />
<glyph unicode="n" horiz-adv-x="1054" d="M61 1036h211v-69q92 94 244 94q184 0 295 -162q80 -53 128 -142t50 -198l4 -682h-153v103h-103v682q-4 68 -30 118q-47 25 -99 25q-78 0 -144.5 -65.5t-88.5 -155.5v-707h-152v103h-102v938q0 27 -20 62.5t-40 55.5zM111 1016q31 -31 30 -98v-918h111v690q23 98 94.5 168 t159.5 70q102 0 176 -77t76 -189v-662h112l-4 662q-4 160 -105.5 269t-244.5 109q-160 0 -264 -127v103h-141z" />
<glyph unicode="o" horiz-adv-x="1200" d="M49 506q0 227 147.5 389t354.5 162q231 0 383 -199q100 -76 158.5 -194.5t58.5 -260.5q0 -225 -145.5 -385.5t-352.5 -160.5q-233 0 -385 198q-102 76 -160.5 195t-58.5 256zM70 506q0 -217 141 -371.5t340 -154.5t338 154.5t139 371.5q0 219 -139 374.5t-338 155.5 t-340 -155.5t-141 -374.5zM182 506q0 174 107.5 296t261.5 122q152 0 258 -122t106 -296q0 -170 -107.5 -292t-256.5 -122q-154 0 -261.5 122t-107.5 292zM305 403q0 -131 70 -237q78 -53 176 -53q141 0 242.5 115.5t101.5 277.5q0 133 -72 242q-78 53 -170 53 q-143 0 -245.5 -117t-102.5 -281z" />
<glyph unicode="p" horiz-adv-x="1177" d="M41 1042h213v-34q135 55 264 55q246 -6 400 -207q100 -74 158.5 -191.5t58.5 -250.5q0 -231 -149.5 -392t-364.5 -161q-154 0 -263 51v-424h-151v102h-103v1237q-4 152 -63 215zM88 1022q14 -16 23.5 -64.5t11.5 -89.5l2 -41v-1216h111v438q111 -66 282 -65 q205 0 349.5 155.5t144.5 376.5q0 215 -143.5 368.5t-350.5 157.5q-150 0 -285 -67v47h-145zM233 190v637q0 41 83 71t202 30q158 0 270.5 -121t112.5 -291q0 -172 -111.5 -295t-271.5 -127q-111 4 -193 31.5t-92 64.5zM356 137q72 -20 162 -22q150 4 256.5 120.5 t106.5 280.5q0 127 -72 232q-86 57 -188 57q-109 0 -187 -23.5t-78 -56.5v-588z" />
<glyph unicode="q" horiz-adv-x="1097" d="M47 528q0 217 147.5 373t348.5 156q158 0 256 -45v20h149v-102h103v-1442h-150v102h-102v324q-76 -16 -154 -16q-115 2 -216 56t-171 146q-98 74 -154.5 186.5t-56.5 241.5zM68 528q0 -207 140 -355t335 -153q172 0 276 66v-475h109v1401h-109v-35q-102 59 -276 59 q-195 0 -335 -149.5t-140 -358.5zM176 528q0 166 107.5 283t259.5 117q115 0 195.5 -30t80.5 -71v-604q-14 -39 -93 -67.5t-183 -28.5q-152 4 -259.5 120.5t-107.5 280.5zM299 426q0 -123 66 -221q84 -55 178 -58q98 0 169.5 24t86.5 56v561q-70 16 -154 17 q-143 0 -244.5 -111.5t-101.5 -267.5z" />
<glyph unicode="r" horiz-adv-x="739" d="M31 1047h243v-84q100 94 242 94q43 0 90 -19l-20 -86q10 2 32 2q43 0 91 -18l-37 -150q-47 14 -64 15q-80 0 -145.5 -65.5t-85.5 -155.5v-703h-152v103h-102v933q0 29 -24.5 67t-67.5 67zM98 1026q45 -29 45 -113v-913h111v686q20 98 92 168t160 70q20 0 47 -9l29 111 q-27 10 -66 10q-160 0 -262 -127v117h-156z" />
<glyph unicode="s" horiz-adv-x="935" d="M47 133l115 88q106 -106 244 -106q90 0 151 41t61 104q0 12 -8 37q-55 31 -106 45q-92 14 -172 64.5t-125 117.5q-150 104 -150 244q0 125 107.5 206t259.5 81q98 0 195.5 -45t166.5 -117l-16 -12q63 -35 119 -90l-123 -91q-102 98 -248 99q-88 0 -146.5 -38t-58.5 -97 q0 -20 6 -39q49 -27 109 -35q94 -14 171 -62.5t122 -115.5q152 -104 151 -254q0 -129 -104 -213t-254 -84q-100 0 -200.5 45t-163.5 125l8 6q-64 37 -111 96zM76 129q55 -68 147 -106.5t189 -38.5q141 0 239.5 77.5t98.5 198.5q0 111 -92.5 200t-231.5 109 q-102 14 -169 71.5t-67 125.5t64.5 112t161.5 44q154 0 250 -93l90 66q-59 63 -148.5 101t-183.5 38q-143 0 -244.5 -74.5t-101.5 -191.5q0 -102 96 -192.5t232 -110.5q94 -20 163.5 -79.5t69.5 -125.5q0 -72 -67.5 -119t-165.5 -47q-145 0 -246 101z" />
<glyph unicode="t" horiz-adv-x="712" d="M20 877v153h148v395h154v-102h102v-293h166v-102h102v-154h-268v-897h-150v103h-102v794h-49v103h-103zM41 897h152v-897h108v897h268v113h-268v395h-113v-395h-147v-113z" />
<glyph unicode="u" horiz-adv-x="1046" d="M59 358v682h152v-102h102v-668l2 -10q2 -63 33 -119q45 -25 98 -24q78 0 143.5 66.5t84.5 154.5v706h151v-102h103v-934q0 -29 19.5 -69.5t39.5 -61.5h-211v76q-104 -94 -241 -94q-180 0 -293 159q-78 53 -126 141.5t-50 192.5zM80 367q4 -4 6 -9q4 -158 104.5 -267 t241.5 -109q152 0 262 127v-109h142q-10 10 -20.5 44t-10.5 67v913h-111v-690q-18 -96 -87.5 -167t-160.5 -71q-100 0 -174.5 79t-78.5 187l-3 11v647h-110v-653z" />
<glyph unicode="v" horiz-adv-x="1161" d="M31 1044h162l40 -102h62l262 -645l209 512l94 235h168l-43 -102h145l-434 -1065h-135l-41 103h-61zM61 1024l412 -1024h107l417 1024h-123l-346 -856l-350 856h-117z" />
<glyph unicode="w" horiz-adv-x="1593" d="M41 1044h164l41 -102h61l260 -641q2 6 8.5 17.5t8.5 17.5l75 188l-110 277q-39 90 -96 243h170l41 -102h61l256 -643l301 745h168l-43 -102h145l-436 -1065l-135 6l-41 101l-61 2l-64 155l-59 -143l-51 -121l-132 6l-41 101l-61 2zM72 1024l413 -1018l105 -6l158 373 l145 -367l108 -6l418 1024h-123l-346 -854l-342 854h-127l201 -500l-143 -354l-349 854h-118z" />
<glyph unicode="x" horiz-adv-x="1079" d="M57 -20l336 552l-325 512h186l63 -102h39l152 -246l139 211l88 137h183l-66 -102h168l-332 -530l197 -316l135 -219h-180l-66 103h-37l-170 266l-18 -31q-12 -20 -17 -27h3l-191 -311h-184l61 103h-164zM94 0h135l256 416l263 -416h135l-320 514l320 510h-138l-253 -397 l-248 397h-140l314 -494z" />
<glyph unicode="y" horiz-adv-x="1132" d="M41 1057h164l41 -103h61l240 -604l168 428l110 279h164l-43 -103h146l-400 -985q-6 -14 -17 -47t-18 -47q-2 -8 -23.5 -59.5t-29.5 -77.5q-45 -119 -143.5 -189.5t-204.5 -70.5q-49 0 -111 16l11 86h-2q-49 0 -111 17l23 176q41 -41 92 -41q61 0 119.5 43t87.5 121 q6 16 19 47.5t19 48.5q2 6 14.5 37.5l20.5 50.5l-57 145zM66 -387q43 -12 88 -12q100 0 194 66.5t135 178.5q14 45 46 126l42 108l-2 -2l389 958h-118l-324 -815l-326 815h-118l389 -956l-78 -193q-31 -84 -93.5 -130t-131.5 -46q-59 0 -76 17z" />
<glyph unicode="z" horiz-adv-x="1040" d="M68 -20v133l507 675h-399v103h-102v153h794v-102h103v-133l-510 -676h407v-102h103v-154h-801v103h-102zM88 0h760v113h-606l606 805v106h-754v-113h600l-606 -805v-106z" />
<glyph unicode="{" horiz-adv-x="509" d="M45 645v152h76q23 0 38 16t15 39v465q8 47 62.5 77.5t125.5 30.5v-122q47 20 103 20v-156q-8 0 -23 -2q-10 -2 -12 0v-442q-29 -84 -86 -94v-21q68 -20 86 -84v-495h35v-152q-61 0 -120.5 34t-68.5 85q-102 39 -102 113v434h-27v94q-10 8 -26 8h-76zM66 666h55 q31 0 52.5 -21.5t21.5 -54.5v-481q0 -45 49 -77t98 -32v111q-35 0 -35 -2v512q-20 63 -86 73v56q59 6 86 75v471q2 -6 35 -6v115q-55 0 -97 -25.5t-50 -66.5v-461q0 -31 -21.5 -53.5t-52.5 -22.5h-55v-110zM242 711q2 -2 7 -4t7 -2q18 18 20 40q-14 -10 -34 -14v-20z" />
<glyph unicode="|" horiz-adv-x="385" d="M80 -18v1495h121v-103h102v-1495h-121v103h-102zM100 2h80v1454h-80v-1454z" />
<glyph unicode="}" horiz-adv-x="503" d="M43 -20v151h39v492q16 78 80 90q0 4 1 11t1 9q-68 25 -82 88v449h-39v155q76 0 127 -30.5t61 -77.5l2 -8q88 -29 101 -95l4 -16v-401h20v-95q12 -8 27 -8h76v-151h-76q-20 0 -33.5 -15.5t-13.5 -40.5v-481q0 -53 -61.5 -91t-131.5 -38v125q-51 -22 -102 -22zM63 0 q55 0 103.5 31.5t48.5 77.5v481q0 33 18.5 54.5t49.5 21.5h55v110h-55q-31 0 -49.5 22.5t-18.5 53.5v448l-4 13q-8 39 -48 65.5t-100 26.5v-115h39v-465q6 -27 30 -48t54 -27q-4 -41 -4 -56q-63 -4 -80 -76v-503q-12 -4 -39 -4v-111zM236 600q16 8 28 10q0 4 1 11.5t1 9.5 q-2 0 -5 2t-5 2q-18 -15 -20 -35z" />
<glyph unicode="~" horiz-adv-x="854" d="M49 664q102 72 227 71q37 0 109 -22l-2 2q2 0 8 -1t8 -1q53 -16 76 -17q94 0 170 64l55 -129q-4 -4 -14 -10.5t-14 -8.5q39 14 76 45l55 -129q-106 -72 -219 -71q-86 0 -140 32q-37 8 -63 9q-86 0 -162 -64l-67 127l2 2q2 2 4 2q-20 -12 -41 -28zM76 657l47 -88 q61 51 156 52q39 0 75 -13l-2 2q53 -31 129 -30q106 0 195 59l-39 88q-61 -51 -162 -51q-29 0 -92 18q-61 20 -107 21q-118 -1 -200 -58z" />
<glyph unicode="&#xa1;" horiz-adv-x="395" d="M66 1348v4q0 33 22.5 57.5t56.5 24.5q33 0 57.5 -25t24.5 -57q0 -8 -4 -25q16 4 25 4q33 0 57.5 -24.5t24.5 -57.5q0 -35 -24.5 -58.5t-57.5 -23.5q-16 0 -33 4v-53h102v-1241h-139v103h-102v1241h96q-4 16 -4 24v4q0 8 4 25q-8 -4 -27 -4q-75 0 -79 78zM86 1350 q4 -59 59 -60q25 0 43.5 17.5t18.5 44.5q0 25 -18.5 43t-43 18t-42 -18.5t-17.5 -42.5v-2zM96 0h99v1200h-99v-1200z" />
<glyph unicode="&#xa2;" horiz-adv-x="1073" d="M35 508q0 205 124 358.5t308 182.5v139h162v-103h102v-69q104 -45 205 -150l-8 -8q57 -37 110 -94l-110 -113q-92 117 -197 140v-617q43 31 92 82l109 -106l-2 -3l104 -100q-152 -160 -303 -182v-137h-162v102h-102v72q-125 55 -211 168q-100 78 -160.5 193.5 t-60.5 244.5zM55 508q0 -199 126 -348.5t306 -171.5v-138h121v136q154 20 295 164l-80 77q-106 -113 -215 -129v820q125 -18 219 -134l80 82q-133 143 -299 164v137h-121v-137q-180 -23 -306 -173t-126 -349zM166 508q0 154 92 270.5t229 139.5v-820q-137 23 -229 139.5 t-92 270.5zM289 406q0 -129 69 -238q53 -33 109 -45v625q-82 -51 -130 -142t-48 -200z" />
<glyph unicode="&#xa3;" horiz-adv-x="1218" d="M27 580v151h239v694h152v-102h102v-592h262v-102h103v-152h-365v-346h570v-102h102v-152h-823v103h-103v497h-137v103h-102zM47 600h240v-600h782v111h-672v489h365v111h-365v694h-110v-694h-240v-111z" />
<glyph unicode="&#xa5;" horiz-adv-x="1513" d="M29 1425h200l74 -102h29l383 -528l467 630h198l-77 -102h180l-545 -729h135v-102h103v-156h-103v-8h103v-156h-291v-295h-156v103h-102v192h-189v102h-102v156h102v8h-102v156h291v31l-379 508zM70 1405l577 -774v-58h-291v-114h291v-49h-291v-115h291v-295h115v295h291 v115h-291v49h291v114h-291v58l577 774h-147l-492 -664l-481 664h-149z" />
<glyph unicode="&#xa6;" horiz-adv-x="385" d="M80 -18v751h102v64h-102v680h121v-103h102v-680h-102v-63h102v-752h-121v103h-102zM100 2h80v711h-80v-711zM100 817h80v639h-80v-639z" />
<glyph unicode="&#xa7;" horiz-adv-x="845" d="M53 782q0 119 78 183v36q0 121 89 193t218 72q98 0 238 -62l-27 -57q63 -16 129 -45l-67 -144q-98 53 -174 54h-13q8 -4 76 -29l-27 -57q43 -10 129 -45l-65 -142q-102 51 -178 52h-4q109 -55 172 -146q166 -123 166 -289q0 -104 -78 -186v-33q0 -125 -92.5 -201.5 t-219.5 -76.5q-102 0 -237 67l27 51q-66 20 -130 52l68 129q102 -45 168 -45h12q-33 12 -67 30l24 54q-63 16 -127 49l66 135q109 -47 172 -47q25 0 37 2q-2 0 -5 2t-5 4q-109 53 -181 150q-78 59 -125 136.5t-47 153.5zM74 782q0 -88 66.5 -178t170.5 -141 q113 -57 150 -135q-39 -14 -82 -15q-66 0 -162 41l-49 -98q104 -53 207 -53q53 0 108 16q-8 -61 -59 -94t-125 -33q-68 0 -158 39l-49 -94q111 -55 209 -55q119 0 205 70.5t86 187.5q0 25 -2 39q80 76 80 180q0 92 -63.5 179t-168.5 138q-102 53 -147 129q25 8 65 8 q78 0 168 -45l49 105q-121 51 -213 51q-53 0 -98 -12q4 57 53.5 90t118.5 33q82 0 166 -45l49 104q-115 51 -211 51q-121 0 -203.5 -66.5t-82.5 -177.5q0 -31 2 -45q-80 -61 -80 -174zM186 774q0 31 17 68q63 -104 182 -156q76 -41 125 -103.5t49 -119.5q0 -33 -14 -62v-2 q-57 100 -183 158q-80 39 -128 98.5t-48 118.5zM309 672q0 -39 21 -74q20 -14 41 -23q104 -51 166 -129q2 4 2 17q0 35 -27 82q-6 4 -17.5 10t-17.5 10h2q-109 45 -168 127q-2 -6 -2 -20z" />
<glyph unicode="&#xa8;" horiz-adv-x="665" d="M55 1308.5q0 34.5 28 61.5t64 27q35 0 64 -27t29 -61q0 -10 -2 -17q2 0 6 1t6 1q35 0 63.5 -26.5t28.5 -61.5q0 -33 -28.5 -60.5t-63.5 -27.5q-37 0 -64.5 26.5t-27.5 61.5v15h-11q-37 0 -64.5 26.5t-27.5 61zM76 1308.5q0 -26.5 21.5 -47t50 -20.5t50 20.5t21.5 47 t-21.5 47t-50 20.5t-50 -20.5t-21.5 -47zM322 1308.5q0 34.5 27.5 61.5t64.5 27t64.5 -27t27.5 -61q0 -10 -2 -17q2 0 6 1t6 1q37 0 64.5 -26.5t27.5 -61.5t-27.5 -61.5t-64.5 -26.5t-64.5 26.5t-27.5 61.5v15h-10q-37 0 -64.5 26.5t-27.5 61zM342 1308.5q0 -26.5 21.5 -47 t50 -20.5t50 20.5t21.5 47t-21.5 47t-50 20.5t-50 -20.5t-21.5 -47z" />
<glyph unicode="&#xaa;" horiz-adv-x="571" d="M43 762q0 55 37 95t96 48l-4 29q6 0 8 2q-39 -6 -88 -23l-22 123q82 20 141 21q43 0 80 -29t53 -78q47 -12 80 -58t35 -110q-2 -55 -2 -112q0 -33 22.5 -81t48.5 -75l-161 2q-23 -10 -64 -10q-55 0 -96 29.5t-55 78.5q-49 16 -79 56.5t-30 91.5zM63 762q0 -55 40 -94 t98 -39q37 0 59 10v-2h117q-16 16 -29.5 58t-13.5 77l2 113q-2 66 -39 108.5t-86 42.5q-55 0 -117 -16l15 -80q55 18 102 18q18 0 32.5 -22.5t16.5 -48.5h-55q-61 0 -101.5 -36t-40.5 -89zM141 762q0 18 17.5 33.5t42.5 15.5h59v-49q0 -20 -18.5 -36.5t-40.5 -16.5 q-25 0 -42.5 16.5t-17.5 36.5zM162 762q0 -12 8 -21q23 29 63 50h-32q-14 0 -26.5 -9.5t-12.5 -19.5z" />
<glyph unicode="&#xab;" horiz-adv-x="1200" d="M39 571l579 490l95 -111l8 8l47 -57l188 160l95 -111l8 8l100 -116l-469 -393l70 -80l317 -377l-112 -101l-95 111l-8 -8l-436 516l-74 -61l180 -213l207 -242l-112 -103l-95 111l-8 -8zM68 569l458 -546l82 73l-387 459l467 391l-74 86zM406 569l458 -546l82 73 l-387 459l467 391l-74 86z" />
<glyph unicode="&#xac;" horiz-adv-x="1415" d="M43 668v151h1225v-102h102v-514h-151v102h-103v260h-971v103h-102zM63 688h1074v-362h110v473h-1184v-111z" />
<glyph unicode="&#xad;" d="M72 524v152h755v-103h103v-151h-756v102h-102zM92 545h715v110h-715v-110z" />
<glyph unicode="&#xb0;" horiz-adv-x="661" d="M49 1202q0 100 66.5 166t169.5 66q137 0 198 -125q57 -27 92 -82.5t35 -126.5q0 -94 -64.5 -160t-158.5 -66q-72 0 -128 35t-85 92q-125 62 -125 201zM70 1202q0 -86 61.5 -145.5t153.5 -59.5q84 0 143 60.5t59 144.5q0 90 -58 150.5t-144 60.5q-92 0 -153.5 -60.5 t-61.5 -150.5zM154 1202q0 51 39.5 92t91.5 41q43 0 80.5 -42t37.5 -91q0 -47 -37.5 -86t-80.5 -39q-51 0 -91 39t-40 86zM174 1202q37 78 119 113h-8q-43 0 -77 -35t-34 -78zM276 1098h9q35 0 66.5 32.5t31.5 71.5v10q-41 -4 -74 -37.5t-33 -74.5v-2zM375 995h12 q35 0 66.5 33t31.5 72v2q-36 -76 -110 -107z" />
<glyph unicode="&#xb1;" horiz-adv-x="946" d="M43 287v151h756v-102h102v-152h-756v103h-102zM45 895v154h301v301h152v-103h102v-198h201v-103h102v-153h-303v-301h-151v102h-103v199h-199v102h-102zM63 307h715v111h-715v-111zM66 915h301v-301h110v301h303v113h-303v301h-110v-301h-301v-113z" />
<glyph unicode="&#xb2;" horiz-adv-x="718" d="M57 1327q123 106 232 107q78 0 140.5 -37t96.5 -101q135 -78 136 -231q0 -96 -72 -188l-123 -138h92v-102h103v-129h-486v102h-102v109l319 356q37 37 37 92q0 10 -4 27q-16 6 -35 6q-55 0 -133 -76l-98 101q55 49 108 75q-49 -12 -112 -73zM88 1325l68 -70q70 68 133 68 q61 0 111.5 -47t50.5 -109q0 -63 -43 -106l-314 -350v-80h445v88h-312l246 274q66 82 66 174q0 102 -73 174t-177 72q-99 0 -201 -88zM274 739h13l209 234q29 31 36 80q-16 -33 -45 -74z" />
<glyph unicode="&#xb3;" horiz-adv-x="708" d="M51 719l74 74h43q59 -63 123 -64q49 0 89 34t40 79q0 8 -2 12q-4 2 -8 2t-9 2h-137v103h-102v129h139q43 4 80 33.5t39 68.5q-4 0 -12.5 1t-12.5 1q-68 0 -145 -84l-92 100q53 55 104 82q-57 -16 -115 -80l-92 101q104 113 238 112q80 0 144.5 -37.5t94.5 -99.5 q125 -66 125 -194q0 -119 -82 -179q76 -84 76 -176q0 -100 -74.5 -169.5t-183.5 -69.5q-129 0 -239 116l14 15q-66 31 -117 88zM80 719q90 -96 211 -96q98 0 167.5 63.5t69.5 155.5q0 104 -90 180q96 53 97 174q0 88 -71 148.5t-171 60.5q-125 0 -211 -92l65 -70 q68 74 146 74q57 0 102 -37t45 -84q0 -45 -42 -84t-95 -43h-121v-88h119q55 -6 97 -47t42 -92q0 -53 -46 -93t-103 -40q-72 0 -131 63h-27zM406 627q45 4 79.5 34.5t36.5 71.5q-36 -71 -116 -106zM473 1018q0 -2 1 -2t1 -2q20 14 35 37q-12 -17 -37 -33z" />
<glyph unicode="&#xb4;" horiz-adv-x="585" d="M29 1176l182 241h244l-129 -102h231l-301 -242h-125l160 213l-137 -110h-125zM70 1196h77l250 201h-176z" />
<glyph unicode="&#xb6;" horiz-adv-x="888" d="M53 1063q0 152 104.5 257t256.5 105h190v-2h127v-102h103v-1440h-127v-4h-226v103h-102v649q-102 45 -162 135q-76 49 -120 129t-44 170zM74 1063q0 -131 96 -231.5t229 -110.5v-721h185v1405h-170q-141 0 -240.5 -99.5t-99.5 -242.5zM182 1071q0 96 55.5 162.5 t137.5 69.5v-463q-82 2 -137.5 69.5t-55.5 161.5zM223 1176q45 59 117 102q-76 -18 -117 -102zM305 969q0 -55 19 -101l30 -6v256q-49 -59 -49 -149zM604 4h107v1399h-107v-1399z" />
<glyph unicode="&#xb7;" horiz-adv-x="473" d="M43 639q0 51 41 93t98 42q47 0 88 -31.5t52 -76.5q45 -12 75.5 -50t30.5 -79q0 -51 -43 -91t-100 -40q-51 0 -89 30.5t-49 75.5q-45 10 -74.5 47t-29.5 80zM63 639q0 -43 35 -77t84 -34t86 34t37 77t-38 79t-85 36t-83 -36t-36 -79z" />
<glyph unicode="&#xb9;" horiz-adv-x="608" d="M43 1186l289 239h131v-102h102v-668h-153v103h-103v266l-33 -27q-4 -2 -22 -20l-109 106zM74 1184l78 -76l178 147v-477h112v627h-102z" />
<glyph unicode="&#xba;" horiz-adv-x="624" d="M49 823q0 100 61.5 167t153.5 67q57 0 105.5 -33t74.5 -86q57 -27 93 -84t36 -133q0 -92 -60 -157.5t-146 -65.5q-133 0 -193 120q-57 27 -91 81t-34 124zM70 823q0 -84 56 -143t138 -59q78 0 132.5 59t54.5 143q0 92 -54.5 152.5t-132.5 60.5q-84 0 -139 -60.5 t-55 -152.5zM147 823q0 51 36 93t81 42q41 0 74 -42t33 -93q0 -47 -34 -86t-73 -39q-45 0 -81 39t-36 86zM168 813q33 88 111 123q-2 0 -7.5 1t-7.5 1q-37 0 -66.5 -35t-29.5 -80v-10zM270 719q31 2 55.5 34.5t24.5 69.5v11q-33 -8 -56.5 -41t-23.5 -72v-2zM346 618 q6 -2 21 -2q33 0 59.5 33t26.5 72v8q-37 -80 -107 -111z" />
<glyph unicode="&#xbb;" horiz-adv-x="1200" d="M39 944l100 117l580 -490l-8 -10l84 -69l43 49l-185 157l-174 144l8 10l-110 92l100 117l580 -490l-8 -10l110 -92l-485 -578l-113 101l4 6l-80 72l-149 -179l-113 101l4 6l-106 96l379 447l-185 157l-174 144l9 10zM70 946l467 -391l-387 -459l81 -73l459 546l-547 463z M408 946l466 -391l-387 -459l82 -73l459 546l-547 463z" />
<glyph unicode="&#xbc;" horiz-adv-x="868" d="M20 920l164 137h88v-115l15 12h88v-481l157 272l99 -49l-207 -352h37l76 129v23h12l86 147l98 -49l-86 -148v-53h103v-151h98v-111h-98v-254h-111v103h-102v151h-150v86l8 16h-110v68h-21v102h-102v375l-39 39l39 33v47l-31 -25q-16 -12 -33 -28zM51 918l47 -46 q72 55 84 66v-514h70v612h-59zM305 254h252v-254h70v254h98v70h-98v151h-70v-151h-168l213 364l-61 31l-236 -406v-59z" />
<glyph unicode="&#xbd;" horiz-adv-x="851" d="M31 922l164 137h88v-115l14 12h88v-235q41 18 82 18q74 0 133 -35.5t90 -97.5q59 -31 95 -89t36 -128q0 -88 -69 -168l-119 -133h86v-102h102v-109h-444v88l12 15h-115v88l301 335q33 37 33 89q0 10 -4 30q-20 4 -35 4q-53 0 -120 -61l-64 63v-227h-111v102h-102v377 l-39 39l39 33v47l-31 -25q-16 -12 -32 -28zM61 920l48 -46q72 55 84 66v-516h69v614h-59zM295 0h403v68h-305l242 270q63 74 63 154q0 94 -67.5 160.5t-163.5 66.5q-90 0 -170 -74l49 -49q59 53 121 53q68 0 115 -45t47 -112q0 -59 -39 -103l-295 -330v-59zM385 555 q59 49 115 70q-20 4 -33 4q-39 0 -82 -31v-43zM438 88h49l191 213q33 37 33 88q0 10 -4 31q-16 -49 -58 -96z" />
<glyph unicode="&#xbe;" horiz-adv-x="1034" d="M25 395l84 74q57 -72 127 -72q55 0 95 35t40 82q-66 18 -146 6v105q-53 6 -102 -2v116h125q53 4 89 33t36 70v2q-20 4 -31 4q-72 0 -135 -70l-78 78q66 70 143 90q-20 4 -32 4q-72 0 -136 -69l-77 77q94 100 213 101q76 0 137 -37t90 -96q55 -29 88 -78t33 -109 q0 -100 -86 -159q37 -31 53 -64l137 234l99 -50l-201 -352h28l76 127v25h13l88 147l98 -49l-86 -152v-49h102v-151h99v-113h-99v-252h-112v103h-103v149h-149v88l8 15h-59q-63 -51 -156 -52q-117 0 -211 109l14 12q-63 27 -116 90zM55 393q76 -86 181 -86q94 0 159.5 60.5 t65.5 146.5q0 109 -99 170q102 51 103 158q0 82 -66.5 139t-158.5 57q-111 0 -185 -80l49 -49q55 61 136 62q63 0 108 -38t45 -91q0 -49 -42 -84t-101 -39h-107v-72q96 16 172 -21.5t76 -111.5q0 -57 -46 -97t-109 -40q-78 0 -130 61zM311 297q8 -2 27 -2q55 0 95 35t40 82 q0 8 -4 28q-39 -106 -158 -143zM399 682l25 -25q51 31 51 82q0 10 -4 27q-21 -47 -72 -84zM463 256h252v-252h71v252h99v72h-99v151h-71v-151h-162l209 364l-62 31l-237 -406v-61z" />
<glyph unicode="&#xbf;" horiz-adv-x="913" d="M31 371q0 164 116.5 287.5t274.5 123.5h63l-53 187l-135 456h68q-12 20 -13 52v12h-12q-41 0 -65.5 25.5t-24.5 64.5q0 41 24.5 66.5t65.5 25.5q35 0 60.5 -25.5t25.5 -66.5q0 -2 -1 -6t-1 -6q6 2 18 2q35 0 60.5 -25.5t25.5 -66.5q0 -31 -17 -54.5t-42 -31.5l18 -68h74 l195 -668v-131h-232q-100 -4 -170.5 -77.5t-70.5 -178.5q0 -70 30 -125q53 -29 119 -28q137 0 240 161l100 -104l2 2l109 -111q-63 -94 -154.5 -150t-193.5 -56q-98 0 -184.5 47t-143.5 127q-82 57 -129 147.5t-47 192.5zM51 371q0 -160 112.5 -275.5t268.5 -115.5 q98 0 182 50t140 134l-80 82q-96 -152 -242 -152q-113 0 -192.5 82t-79.5 194.5t76.5 192.5t185.5 84h211v105l-191 653h-116l188 -643h-92q-150 0 -260.5 -116.5t-110.5 -274.5zM270 1579q0 -31 19.5 -50.5t50.5 -19.5q27 0 46.5 20.5t19.5 49.5q0 31 -19.5 51.5 t-46.5 20.5q-33 0 -51.5 -19.5t-18.5 -52.5z" />
<glyph unicode="&#xc0;" horiz-adv-x="1220" d="M-35 -20l537 1456h116l37 -103h66l536 -1456h-159l-39 103h-64l-176 473h-377l-139 -373l-78 -203h-157l36 103h-139zM-6 0h117l215 575h469l215 -575h116l-520 1415h-92zM268 1784h248l76 -103h26l181 -241h-123l-305 241h26zM328 1763l252 -200h75l-149 200h-178z M367 688l192 520l195 -520h-387zM535 709h192l-82 215v-2q-12 29 -16 43q-16 -41 -31 -84v-2z" />
<glyph unicode="&#xc1;" horiz-adv-x="1220" d="M-35 -20l537 1456h116l37 -103h66l536 -1456h-159l-39 103h-64l-176 473h-377l-139 -373l-78 -203h-157l36 103h-139zM-6 0h117l215 575h469l215 -575h116l-520 1415h-92zM367 688l192 520l195 -520h-387zM475 1567l182 241h244l-129 -102h232l-302 -242h-124l159 213 l-137 -110h-125zM516 1587h78l250 201h-176zM535 709h192l-82 215v-2q-12 29 -16 43q-16 -41 -31 -84v-2z" />
<glyph unicode="&#xc2;" horiz-adv-x="1220" d="M-35 -20l537 1456h116l37 -103h66l536 -1456h-159l-39 103h-64l-176 473h-377l-139 -373l-78 -203h-157l36 103h-139zM-6 0h117l215 575h469l215 -575h116l-520 1415h-92zM367 688l192 520l195 -520h-387zM535 709h192l-82 215v-2q-12 29 -16 43q-16 -41 -31 -84v-2z" />
<glyph unicode="&#xc3;" horiz-adv-x="1374" d="M41 -6l537 1456h116l37 -102h66l536 -1457h-159l-39 103h-64l-176 473h-377l-139 -373l-78 -203h-158l37 103h-139zM70 14h116l215 576h469l215 -576h117l-520 1416h-92zM317 1632q111 70 218 70q49 0 106 -16h-6l2 -3h4q49 -16 78 -16q94 0 162 57l57 -120 q-27 -20 -51 -31q53 12 96 49l57 -121q-98 -70 -215 -69q-70 0 -125 24q-31 10 -63 10q-80 0 -156 -55l-61 119l53 29q-51 -12 -94 -46zM344 1626l43 -82q61 45 148 45q39 0 71 -12l-2 2q51 -25 119 -25q113 0 190 56l-41 82q-55 -45 -153 -45q-25 0 -84 18q-57 16 -100 16 q-105 0 -191 -55zM442 702l193 521l194 -521h-387zM610 723h193l-82 215v-2q-12 29 -16 43q-16 -41 -31 -84v-2z" />
<glyph unicode="&#xc4;" horiz-adv-x="1220" d="M-35 -20l537 1456h116l37 -103h66l536 -1456h-159l-39 103h-64l-176 473h-377l-139 -373l-78 -203h-157l36 103h-139zM-6 0h117l215 575h469l215 -575h116l-520 1415h-92zM322 1540q0 35 27.5 61.5t64.5 26.5q35 0 63.5 -26.5t28.5 -61.5q0 -10 -2 -16q2 0 6 1t6 1 q35 0 63.5 -26.5t28.5 -61.5q0 -33 -28.5 -60.5t-63.5 -27.5q-37 0 -64.5 26.5t-27.5 61.5v14h-10q-37 0 -64.5 26.5t-27.5 61.5zM342 1540q0 -27 21.5 -47t50 -20t50 20t21.5 47t-21.5 47.5t-50 20.5t-50 -20.5t-21.5 -47.5zM367 688l192 520l195 -520h-387zM535 709h192 l-82 215v-2q-12 29 -16 43q-16 -41 -31 -84v-2zM588 1540q0 35 27.5 61.5t64.5 26.5t64.5 -26.5t27.5 -61.5q0 -10 -2 -16q2 0 6 1t6 1q37 0 64.5 -26.5t27.5 -61.5t-27.5 -61.5t-64.5 -26.5t-64.5 26.5t-27.5 61.5v14h-10q-37 0 -64.5 26.5t-27.5 61.5zM608 1540 q0 -27 21.5 -47t50.5 -20t50.5 20t21.5 47t-21.5 47.5t-50.5 20.5t-50.5 -20.5t-21.5 -47.5z" />
<glyph unicode="&#xc5;" horiz-adv-x="1353" d="M344 1753q0 100 66.5 166t169.5 66q137 0 198 -125q57 -27 92 -82.5t35 -126.5q0 -94 -64.5 -160t-158.5 -66q-72 0 -128 35t-85 92q-125 62 -125 201zM365 1753q0 -86 61.5 -145.5t153.5 -59.5q84 0 143 60.5t59 144.5q0 90 -58 150.5t-144 60.5q-92 0 -153.5 -60.5 t-61.5 -150.5zM449 1753q0 51 39.5 92t91.5 41q43 0 80.5 -42t37.5 -91q0 -47 -37.5 -86t-80.5 -39q-51 0 -91 39t-40 86zM469 1753q37 78 119 113h-8q-43 0 -77 -35t-34 -78zM571 1649h9q35 0 66.5 32.5t31.5 71.5v10q-41 -4 -74 -37.5t-33 -74.5v-2zM670 1546h12 q35 0 66.5 33t31.5 72v2q-36 -76 -110 -107zM31 -20l536 1456h117l37 -103h65l537 -1456h-160l-39 103h-63l-176 473h-377l-139 -373l-78 -203h-158l37 103h-139zM59 0h117l215 575h469l215 -575h117l-520 1415h-92zM432 688l193 520l194 -520h-387zM600 709h193l-82 215v-2 q-12 29 -17 43q-16 -41 -30 -84v-2z" />
<glyph unicode="&#xc6;" horiz-adv-x="2119" d="M63 -20l539 1456h1352v-103h102v-149h-717v-355h510v-102h103v-154h-613v-440h615v-102h102v-154h-870v103h-103v473h-542l-103 -277l-110 -299h-162l37 103h-140zM92 0h119l215 575h678v-575h829v113h-716v583h612v113h-612v498h716v108h-1319zM467 688l219 619h436 l-18 -619h-637zM635 709h448l15 475h-295l-58 -158q-37 -100 -49 -137z" />
<glyph unicode="&#xc7;" horiz-adv-x="1325" d="M37 700q0 313 194.5 528.5t473.5 215.5q268 0 479 -232l-6 -4q51 -39 108 -98l-108 -100q-170 182 -371 182q-215 0 -365.5 -175t-150.5 -419q0 -217 129 -389q131 -98 285 -98q193 0 366 178l109 -103l-4 -4l106 -98q-199 -211 -461 -223q84 -51 84 -125 q0 -82 -137 -160l-168 125q18 0 33 2l-135 100q106 0 153 23l2 33q-20 10 -53 10h-51v47q-143 68 -238 186q-127 102 -200.5 259t-73.5 339zM57 700q0 -258 147.5 -454.5t366.5 -249.5l-2 -107h31q29 0 58.5 -11t29.5 -36q0 -31 -47 -45t-82 -14l109 -80q115 63 114 135 q0 41 -33.5 76t-66.5 45q6 18 8 23q274 4 461 202l-80 76q-164 -170 -366 -170q-223 0 -380 181.5t-157 428.5q0 252 156.5 433.5t380.5 181.5q207 0 370 -174l80 73q-193 209 -450 209q-268 0 -458 -210t-190 -513zM721 -287q49 12 49 27q0 10 -6 12q-10 -10 -43 -39z" />
<glyph unicode="&#xc8;" horiz-adv-x="993" d="M10 -20v1456h869v-103h102v-149h-715v-355h508v-102h103v-154h-611v-440h613v-102h102v-154h-868v103h-103zM31 0h827v113h-715v583h611v113h-611v498h715v108h-827v-1415zM127 1784h248l76 -103h26l180 -241h-122l-306 241h27zM186 1763l252 -200h76l-149 200h-179z" />
<glyph unicode="&#xc9;" horiz-adv-x="993" d="M10 -20v1456h869v-103h102v-149h-715v-355h508v-102h103v-154h-611v-440h613v-102h102v-154h-868v103h-103zM31 0h827v113h-715v583h611v113h-611v498h715v108h-827v-1415zM305 1567l182 241h244l-129 -102h232l-302 -242h-124l159 213l-137 -110h-125zM346 1587h78 l250 201h-176z" />
<glyph unicode="&#xca;" horiz-adv-x="1118" d="M195 1770l262 260l102 -102l162 -160l102 -103l-100 -98l-102 103l-64 61l-164 -164l-96 100l164 162l-4 6l-166 -165zM223 1770l68 -72l166 166l164 -166l71 70l-235 233zM74 -20v1456h868v-103h102v-149h-714v-355h508v-102h102v-154h-610v-440h612v-102h102v-154h-868 v103h-102zM94 0h828v113h-715v583h610v113h-610v498h715v108h-828v-1415z" />
<glyph unicode="&#xcb;" horiz-adv-x="993" d="M10 -20v1456h869v-103h102v-149h-715v-355h508v-102h103v-154h-611v-440h613v-102h102v-154h-868v103h-103zM31 0h827v113h-715v583h611v113h-611v498h715v108h-827v-1415zM207 1542q0 35 27.5 61.5t64.5 26.5q35 0 63.5 -26.5t28.5 -61.5q0 -10 -2 -16q2 0 6 1t6 1 q35 0 64 -26.5t29 -61.5q0 -33 -29 -60.5t-64 -27.5q-37 0 -64.5 26.5t-27.5 61.5v14h-10q-37 0 -64.5 26.5t-27.5 61.5zM227 1542.5q0 -26.5 21.5 -47t50.5 -20.5t50.5 20.5t21.5 47t-21.5 47t-50.5 20.5t-50.5 -20.5t-21.5 -47zM473 1542q0 35 27.5 61.5t64.5 26.5 t64.5 -26.5t27.5 -61.5q0 -10 -2 -16q2 0 6.5 1t6.5 1q37 0 64.5 -26.5t27.5 -61.5t-27.5 -61.5t-64.5 -26.5t-65 26.5t-28 61.5v14h-10q-37 0 -64.5 26.5t-27.5 61.5zM494 1542.5q0 -26.5 21.5 -47t50 -20.5t50 20.5t21.5 47t-21.5 47t-50 20.5t-50 -20.5t-21.5 -47z" />
<glyph unicode="&#xcc;" horiz-adv-x="268" d="M-131 1784h248l76 -103h26l180 -241h-123l-305 241h27zM-72 1763l252 -200h76l-150 200h-178zM70 -20v1456h153v-103h103v-1456h-154v103h-102zM90 0h113v1415h-113v-1415z" />
<glyph unicode="&#xcd;" horiz-adv-x="315" d="M-106 1567l182 241h243l-129 -102h232l-301 -242h-125l160 213l-138 -110h-124zM-104 -20v1456h153v-103h103v-1456h-154v103h-102zM-84 0h113v1415h-113v-1415zM-66 1587h78l250 201h-176z" />
<glyph unicode="&#xce;" horiz-adv-x="282" d="M12 -20v1456h154v-103h102v-1456h-153v103h-103zM33 0h112v1415h-112v-1415z" />
<glyph unicode="&#xcf;" horiz-adv-x="282" d="M-135 1540q0 35 27.5 61.5t64.5 26.5q35 0 63.5 -26.5t28.5 -61.5q0 -10 -2 -16q2 0 6 1t6 1q35 0 64 -26.5t29 -61.5q0 -33 -29 -60.5t-64 -27.5q-37 0 -64.5 26.5t-27.5 61.5v14h-10q-37 0 -64.5 26.5t-27.5 61.5zM-115 1540q0 -27 21.5 -47t50.5 -20t50.5 20t21.5 47 t-21.5 47.5t-50.5 20.5t-50.5 -20.5t-21.5 -47.5zM20 -20v1456h154v-103h102v-1456h-153v103h-103zM41 0h113v1415h-113v-1415zM131 1540q0 35 27.5 61.5t64.5 26.5t64.5 -26.5t27.5 -61.5q0 -10 -2 -16q2 0 6.5 1t6.5 1q37 0 64.5 -26.5t27.5 -61.5t-28 -61.5t-64.5 -26.5 t-64.5 26.5t-28 61.5v14h-10q-37 0 -64.5 26.5t-27.5 61.5zM152 1540q0 -27 21.5 -47t50 -20t50 20t21.5 47t-21.5 47.5t-50 20.5t-50 -20.5t-21.5 -47.5z" />
<glyph unicode="&#xd0;" horiz-adv-x="1415" d="M55 530v152h135v754h547q205 -4 353 -193q123 -96 195.5 -265t72.5 -370q0 -299 -148.5 -511t-365.5 -220h-551v103h-103v448h-32v102h-103zM76 551h135v-551h530q207 8 350.5 214t143.5 496.5t-145.5 496.5t-352.5 208h-526v-753h-135v-111zM324 113v438h350v111h-350 v641h413q162 -2 273.5 -175.5t111.5 -416.5q0 -242 -111.5 -416t-269.5 -178q-68 0 -207.5 -2t-209.5 -2zM446 133q57 0 89 2q35 0 104.5 1t101.5 1q150 4 255.5 172t105.5 402q0 250 -121 422q-66 43 -141 47h-394v-498h248v-102h103v-152h-351v-295z" />
<glyph unicode="&#xd1;" horiz-adv-x="1099" d="M20 -20v1456h138l59 -103h43l561 -950v1053h154v-103h102v-1456h-139l-61 103h-41l-562 954v-1057h-151v103h-103zM41 0h111v1186l696 -1186h106v1415h-112v-1179l-697 1179h-104v-1415zM205 1659q94 49 178 49q41 0 125 -25q4 0 8 -2l8 -4q61 -27 111 -26q59 0 133 45 l45 -127q-4 -2 -11 -6t-11 -7q41 12 79 37l45 -127q-88 -51 -178 -51q-92 0 -202 68l40 -25q-39 14 -90 15q-57 0 -131 -46l-47 129q2 0 5 2.5t5 4.5q-20 -8 -65 -33zM229 1649l33 -88q57 35 121 34q55 0 98 -16h-2q63 -41 156 -41q82 0 153 41l-30 88q-57 -37 -123 -37 q-47 0 -117 29q-86 29 -135 29q-80 0 -154 -39z" />
<glyph unicode="&#xd2;" horiz-adv-x="1413" d="M-8 707q0 307 194.5 522t470.5 215q147 0 276.5 -63.5t219.5 -176.5q127 -102 198.5 -259t71.5 -341q0 -328 -202 -541q-188 -205 -461 -204q-141 0 -270.5 64.5t-223.5 178.5q-127 102 -200.5 260.5t-73.5 344.5zM12 707q0 -305 191.5 -515t453.5 -210q264 0 447 198 q197 207 196 527q0 301 -184 508.5t-459 207.5q-268 0 -456.5 -209.5t-188.5 -506.5zM127 707q0 252 154.5 427t376 175t364.5 -160q170 -174 170 -442q0 -256 -153.5 -433.5t-381.5 -177.5q-223 0 -376.5 177.5t-153.5 433.5zM250 604q0 -227 127 -393q127 -94 280 -94 q219 0 366.5 171t147.5 419q0 219 -124 380q-127 98 -287 99q-213 0 -361.5 -170t-148.5 -412zM319 1784h248l76 -103h27l180 -241h-123l-305 241h27zM379 1763l252 -200h76l-150 200h-178z" />
<glyph unicode="&#xd3;" horiz-adv-x="1413" d="M-8 707q0 307 194.5 522t470.5 215q147 0 276.5 -63.5t219.5 -176.5q127 -102 198.5 -259t71.5 -341q0 -328 -202 -541q-188 -205 -461 -204q-141 0 -270.5 64.5t-223.5 178.5q-127 102 -200.5 260.5t-73.5 344.5zM12 707q0 -305 191.5 -515t453.5 -210q264 0 447 198 q197 207 196 527q0 301 -184 508.5t-459 207.5q-268 0 -456.5 -209.5t-188.5 -506.5zM127 707q0 252 154.5 427t376 175t364.5 -160q170 -174 170 -442q0 -256 -153.5 -433.5t-381.5 -177.5q-223 0 -376.5 177.5t-153.5 433.5zM250 604q0 -227 127 -393q127 -94 280 -94 q219 0 366.5 171t147.5 419q0 219 -124 380q-127 98 -287 99q-213 0 -361.5 -170t-148.5 -412zM594 1567l182 241h244l-129 -102h231l-301 -242h-125l160 213l-137 -110h-125zM635 1587h78l250 201h-177z" />
<glyph unicode="&#xd4;" horiz-adv-x="1538" d="M404 1770l262 260l102 -102l162 -160l102 -103l-100 -98l-102 103l-64 61l-164 -164l-96 100l164 162l-4 6l-166 -165zM432 1770l68 -72l166 166l164 -166l71 70l-235 233zM53 707q0 307 194.5 522t471.5 215q147 0 276 -63.5t219 -176.5q127 -102 199 -259t72 -341 q0 -328 -203 -541q-188 -205 -461 -204q-141 0 -270 64.5t-223 178.5q-127 102 -201 260.5t-74 344.5zM74 707q0 -305 191.5 -515t453.5 -210q264 0 446 198q197 207 197 527q0 301 -184.5 508.5t-458.5 207.5q-268 0 -456.5 -209.5t-188.5 -506.5zM188 707q0 252 155 427 t376 175t364 -160q170 -174 170 -442q0 -256 -153.5 -433.5t-380.5 -177.5q-223 0 -377 177.5t-154 433.5zM311 604q0 -227 127 -393q127 -94 281 -94q219 0 366.5 171t147.5 419q0 219 -125 380q-127 98 -287 99q-213 0 -361.5 -170t-148.5 -412z" />
<glyph unicode="&#xd5;" horiz-adv-x="1413" d="M-8 707q0 307 194.5 522t470.5 215q147 0 276.5 -63.5t219.5 -176.5q127 -102 198.5 -259t71.5 -341q0 -328 -202 -541q-188 -205 -461 -204q-141 0 -270.5 64.5t-223.5 178.5q-127 102 -200.5 260.5t-73.5 344.5zM12 707q0 -305 191.5 -515t453.5 -210q264 0 447 198 q197 207 196 527q0 301 -184 508.5t-459 207.5q-268 0 -456.5 -209.5t-188.5 -506.5zM127 707q0 252 154.5 427t376 175t364.5 -160q170 -174 170 -442q0 -256 -153.5 -433.5t-381.5 -177.5q-223 0 -376.5 177.5t-153.5 433.5zM250 604q0 -227 127 -393q127 -94 280 -94 q219 0 366.5 171t147.5 419q0 219 -124 380q-127 98 -287 99q-213 0 -361.5 -170t-148.5 -412zM358 1661q94 49 179 49q41 0 125 -24q2 -2 8 -4.5t8 -2.5q61 -27 110 -26q59 0 134 45l45 -127l-11.5 -6l-11.5 -6q39 12 80 36l45 -127q-88 -51 -178 -51q-92 0 -203 68l41 -25 q-39 14 -90 15q-57 0 -131 -45l-47 129q2 2 5 4t5 2q-20 -8 -65 -33zM383 1651l33 -88q57 35 121 34q55 0 98 -16h-2q63 -41 155 -41q82 0 154 41l-31 88q-57 -37 -123 -37q-47 0 -116 29q-86 29 -135 29q-80 0 -154 -39z" />
<glyph unicode="&#xd6;" horiz-adv-x="1413" d="M-8 707q0 307 194.5 522t470.5 215q147 0 276.5 -63.5t219.5 -176.5q127 -102 198.5 -259t71.5 -341q0 -328 -202 -541q-188 -205 -461 -204q-141 0 -270.5 64.5t-223.5 178.5q-127 102 -200.5 260.5t-73.5 344.5zM12 707q0 -305 191.5 -515t453.5 -210q264 0 447 198 q197 207 196 527q0 301 -184 508.5t-459 207.5q-268 0 -456.5 -209.5t-188.5 -506.5zM127 707q0 252 154.5 427t376 175t364.5 -160q170 -174 170 -442q0 -256 -153.5 -433.5t-381.5 -177.5q-223 0 -376.5 177.5t-153.5 433.5zM250 604q0 -227 127 -393q127 -94 280 -94 q219 0 366.5 171t147.5 419q0 219 -124 380q-127 98 -287 99q-213 0 -361.5 -170t-148.5 -412zM424 1542q0 35 27.5 61.5t64.5 26.5q35 0 63.5 -26.5t28.5 -61.5q0 -10 -2 -16q2 0 6 1t6 1q35 0 64 -26.5t29 -61.5q0 -33 -29 -60.5t-64 -27.5q-37 0 -64.5 26.5t-27.5 61.5 v14h-10q-37 0 -64.5 26.5t-27.5 61.5zM444 1542.5q0 -26.5 21.5 -47t50.5 -20.5t50.5 20.5t21.5 47t-21.5 47t-50.5 20.5t-50.5 -20.5t-21.5 -47zM690 1542q0 35 27.5 61.5t64.5 26.5t64.5 -26.5t27.5 -61.5q0 -10 -2 -16q2 0 6.5 1t6.5 1q37 0 64.5 -26.5t27.5 -61.5 t-27.5 -61.5t-64.5 -26.5t-64.5 26.5t-27.5 61.5v14h-11q-37 0 -64.5 26.5t-27.5 61.5zM711 1542.5q0 -26.5 21.5 -47t50 -20.5t50 20.5t21.5 47t-21.5 47t-50 20.5t-50 -20.5t-21.5 -47z" />
<glyph unicode="&#xd7;" horiz-adv-x="856" d="M55 426l213 215l-211 211l105 109l102 -103l113 -110l213 213l108 -107l-2 -2l105 -100l-215 -213l215 -215l-107 -107l-215 215l-215 -215zM84 426l78 -78l215 213l215 -213l78 78l-215 215l215 213l-80 78l-213 -213l-215 213l-76 -80l211 -211z" />
<glyph unicode="&#xd8;" horiz-adv-x="1542" d="M55 707q0 307 194.5 522t471.5 215q90 0 180 -27l6 19h158l-25 -78q6 -4 17.5 -12.5t17.5 -12.5h92l-18 -59q23 -23 63 -68q129 -106 202 -263t73 -339q0 -328 -203 -541q-188 -205 -461 -204q-86 0 -174 24v-6h-172l25 72l-49 31h-78l16 49q-33 33 -63 69 q-127 100 -200 260.5t-73 348.5zM76 707q0 -211 97 -385.5t253 -260.5l-23 -61h123q0 10 2 14q102 -33 193 -32q264 0 446 198q197 207 197 527q0 207 -93 375.5t-255 265.5l22 67h-118q-2 -2 -7 -22q-98 31 -192 30q-268 0 -456.5 -209.5t-188.5 -506.5zM190 707 q0 252 155 427t376 175q86 0 151 -25l-409 -1116q-125 78 -199 221.5t-74 317.5zM313 604q0 -229 123 -395q2 -2 8.5 -5t8.5 -5l233 635l129 352q-209 -4 -355.5 -173t-146.5 -409zM567 121l410 1118q47 -27 108 -90q170 -174 170 -442q0 -256 -153.5 -433.5t-380.5 -177.5 q-86 0 -154 25zM727 117q215 2 361.5 173t146.5 417q0 223 -127 385q-12 8 -18 14l-115 -309z" />
<glyph unicode="&#xd9;" horiz-adv-x="1224" d="M16 358v1078h160v-103h103v-1073q6 -39 24 -67q113 -76 266 -76q143 0 255 73.5t128 171.5v1074h154v-103h102v-1075q-6 -164 -164.5 -281.5t-371.5 -117.5q-156 0 -286 60.5t-202 160.5q-160 116 -168 278zM37 360q10 -156 164.5 -267t367.5 -111q205 0 357.5 111.5 t158.5 266.5v1055h-112v-1055q-14 -106 -132 -185t-272 -79q-160 0 -279.5 79t-133.5 185v1055h-119v-1055zM270 1784h248l76 -103h27l180 -241h-123l-305 241h26zM330 1763l252 -200h75l-149 200h-178z" />
<glyph unicode="&#xda;" horiz-adv-x="1224" d="M16 358v1078h160v-103h103v-1073q6 -39 24 -67q113 -76 266 -76q143 0 255 73.5t128 171.5v1074h154v-103h102v-1075q-6 -164 -164.5 -281.5t-371.5 -117.5q-156 0 -286 60.5t-202 160.5q-160 116 -168 278zM37 360q10 -156 164.5 -267t367.5 -111q205 0 357.5 111.5 t158.5 266.5v1055h-112v-1055q-14 -106 -132 -185t-272 -79q-160 0 -279.5 79t-133.5 185v1055h-119v-1055zM481 1567l183 241h243l-129 -102h232l-301 -242h-125l159 213l-137 -110h-125zM522 1587h78l250 201h-176z" />
<glyph unicode="&#xdb;" horiz-adv-x="1335" d="M301 1770l262 260l102 -102l162 -160l102 -103l-100 -98l-102 103l-64 61l-164 -164l-96 100l164 162l-4 6l-166 -165zM329 1770l68 -72l166 166l164 -166l71 70l-235 233zM72 358v1078h159v-103h103v-1073q6 -39 24 -67q113 -76 267 -76q143 0 254.5 73.5t128.5 171.5 v1074h153v-103h103v-1075q-6 -164 -165 -281.5t-372 -117.5q-156 0 -286 60.5t-201 160.5q-160 116 -168 278zM92 360q10 -156 165 -267t368 -111q205 0 357.5 111.5t158.5 266.5v1055h-113v-1055q-14 -106 -132 -185t-271 -79q-160 0 -280 79t-134 185v1055h-119v-1055z " />
<glyph unicode="&#xdc;" horiz-adv-x="1224" d="M16 358v1078h160v-103h103v-1073q6 -39 24 -67q113 -76 266 -76q143 0 255 73.5t128 171.5v1074h154v-103h102v-1075q-6 -164 -164.5 -281.5t-371.5 -117.5q-156 0 -286 60.5t-202 160.5q-160 116 -168 278zM37 360q10 -156 164.5 -267t367.5 -111q205 0 357.5 111.5 t158.5 266.5v1055h-112v-1055q-14 -106 -132 -185t-272 -79q-160 0 -279.5 79t-133.5 185v1055h-119v-1055zM338 1540q0 35 27.5 61.5t64.5 26.5q35 0 63.5 -26.5t28.5 -61.5q0 -10 -2 -16q2 0 6 1t6 1q35 0 64 -26.5t29 -61.5q0 -33 -29 -60.5t-64 -27.5q-37 0 -64.5 26.5 t-27.5 61.5v14h-10q-37 0 -64.5 26.5t-27.5 61.5zM358 1540q0 -27 21.5 -47t50.5 -20t50.5 20t21.5 47t-21.5 47.5t-50.5 20.5t-50.5 -20.5t-21.5 -47.5zM604 1540q0 35 27.5 61.5t64.5 26.5t64.5 -26.5t27.5 -61.5q0 -10 -2 -16q2 0 6.5 1t6.5 1q37 0 64.5 -26.5 t27.5 -61.5t-27.5 -61.5t-64.5 -26.5t-64.5 26.5t-27.5 61.5v14h-11q-37 0 -64.5 26.5t-27.5 61.5zM625 1540q0 -27 21.5 -47t50 -20t50 20t21.5 47t-21.5 47.5t-50 20.5t-50 -20.5t-21.5 -47.5z" />
<glyph unicode="&#xdd;" horiz-adv-x="1394" d="M-33 1436h201l74 -103h28l387 -532l113 151l358 484h199l-78 -103h181l-603 -805v-651h-155v103h-103v651l-168 223zM8 1415l582 -778v-637h115v637l581 778h-147l-494 -667l-487 667h-150zM580 1567l182 241h244l-129 -102h231l-301 -242h-125l160 213l-137 -110h-125z M621 1587h77l250 201h-176z" />
<glyph unicode="&#xde;" horiz-adv-x="1126" d="M45 -414v1852h154v-103h102v-286q82 20 160 20q248 -6 401 -209q102 -76 160.5 -192.5t58.5 -251.5q0 -231 -150.5 -394t-367.5 -163q-131 0 -264 57v-432h-152v102h-102zM66 -393h110v444q156 -70 285 -69q207 0 352 156.5t145 379.5q0 217 -145 371.5t-352 159.5 q-164 0 -283 -70v438h-112v-1810zM172 836q14 39 98 68.5t191 29.5q156 0 269.5 -125t113.5 -293q0 -172 -113 -295t-270 -127q-78 2 -144.5 17.5t-103.5 40t-35 51.5zM295 731l6 -596q59 -16 160 -20q150 4 256 120.5t106 280.5q0 129 -73 236q-90 59 -187 59 q-100 0 -177 -23.5t-91 -56.5z" />
<glyph unicode="&#xdf;" horiz-adv-x="1120" d="M57 -365v1790h475q104 -2 193.5 -51t144.5 -127q76 -53 120 -132t44 -165q0 -184 -155 -301q2 -2 5 -8t5 -8q82 -55 128 -143.5t46 -188.5q0 -170 -124 -294t-304 -126h-184l-138 137v-485h-153v102h-103zM78 -344h112v1036h308q145 -8 237 -91t92 -197.5t-86 -200.5 t-209 -92h-282l106 -107h176q172 2 290 120t118 279q0 109 -57.5 201t-153.5 141q82 51 132 131t50 177q0 141 -111.5 245.5t-267.5 106.5h-454v-1749zM190 803v493h342q113 -6 190 -76.5t77 -166.5q0 -104 -77 -175t-190 -75h-342zM313 131h219q113 6 194 86t81 186 q0 57 -31 115q-78 45 -178 51h-285v-438zM313 823h219q104 4 175 68.5t71 161.5q0 41 -20 86q-57 29 -125 35h-320v-351z" />
<glyph unicode="&#xe0;" horiz-adv-x="831" d="M-20 295q0 145 108.5 241.5t259.5 96.5h193v8q0 84 -31 150q-14 6 -45 10q-119 0 -256 -39l-31 121l-72 -19l-36 148q152 45 295 45q158 -4 256 -152q76 -47 123 -134t53 -191v-21q-4 -172 -4 -336q0 -281 59 -346h-209v41q-94 -61 -207 -61q-94 0 -174 44t-129 117 q-70 45 -111.5 119t-41.5 158zM0 295q0 -131 98.5 -223t235.5 -92q129 0 227 81v-61h141q-33 35 -32 326l4 336v20q-8 145 -97.5 248.5t-211.5 105.5q-137 0 -271 -39l27 -106q113 33 241 33q88 -2 143.5 -84t55.5 -199v-29h-213q-143 0 -245.5 -91t-102.5 -226zM59 1393 h248l76 -103h27l180 -241h-123l-305 241h26zM113 295q0 90 68.5 148.5t166.5 58.5h213v-207q0 -84 -66.5 -142.5t-160.5 -58.5q-92 0 -156.5 58.5t-64.5 142.5zM119 1372l252 -201h75l-149 201h-178zM236 193q0 -31 10 -62q43 -16 88 -16q86 0 146.5 52t60.5 128v84h-90 q-90 0 -152.5 -52t-62.5 -134z" />
<glyph unicode="&#xe1;" horiz-adv-x="831" d="M-20 295q0 145 108.5 241.5t259.5 96.5h193v8q0 84 -31 150q-14 6 -45 10q-119 0 -256 -39l-31 121l-72 -19l-36 148q152 45 295 45q158 -4 256 -152q76 -47 123 -134t53 -191v-21q-4 -172 -4 -336q0 -281 59 -346h-209v41q-94 -61 -207 -61q-94 0 -174 44t-129 117 q-70 45 -111.5 119t-41.5 158zM0 295q0 -131 98.5 -223t235.5 -92q129 0 227 81v-61h141q-33 35 -32 326l4 336v20q-8 145 -97.5 248.5t-211.5 105.5q-137 0 -271 -39l27 -106q113 33 241 33q88 -2 143.5 -84t55.5 -199v-29h-213q-143 0 -245.5 -91t-102.5 -226zM113 295 q0 90 68.5 148.5t166.5 58.5h213v-207q0 -84 -66.5 -142.5t-160.5 -58.5q-92 0 -156.5 58.5t-64.5 142.5zM236 193q0 -31 10 -62q43 -16 88 -16q86 0 146.5 52t60.5 128v84h-90q-90 0 -152.5 -52t-62.5 -134zM242 1176l182 241h244l-129 -102h231l-301 -242h-125l160 213 l-137 -110h-125zM283 1196h77l250 201h-176z" />
<glyph unicode="&#xe2;" horiz-adv-x="831" d="M-20 295q0 145 108.5 241.5t259.5 96.5h193v8q0 84 -31 150q-14 6 -45 10q-119 0 -256 -39l-31 121l-72 -19l-36 148q152 45 295 45q158 -4 256 -152q76 -47 123 -134t53 -191v-21q-4 -172 -4 -336q0 -281 59 -346h-209v41q-94 -61 -207 -61q-94 0 -174 44t-129 117 q-70 45 -111.5 119t-41.5 158zM0 295q0 -131 98.5 -223t235.5 -92q129 0 227 81v-61h141q-33 35 -32 326l4 336v20q-8 145 -97.5 248.5t-211.5 105.5q-137 0 -271 -39l27 -106q113 33 241 33q88 -2 143.5 -84t55.5 -199v-29h-213q-143 0 -245.5 -91t-102.5 -226zM94 1274 l262 260l103 -102l162 -160l102 -103l-100 -98l-103 103l-63 61l-164 -164l-96 100l163 162l-4 6l-166 -165zM113 295q0 90 68.5 148.5t166.5 58.5h213v-207q0 -84 -66.5 -142.5t-160.5 -58.5q-92 0 -156.5 58.5t-64.5 142.5zM123 1274l67 -72l166 166l164 -166l72 70 l-236 233zM236 193q0 -31 10 -62q43 -16 88 -16q86 0 146.5 52t60.5 128v84h-90q-90 0 -152.5 -52t-62.5 -134z" />
<glyph unicode="&#xe3;" horiz-adv-x="976" d="M51 309q0 145 108.5 241.5t260.5 96.5h192v8q0 86 -30 150q-14 6 -45 10q-119 0 -256 -39l-31 121l-72 -18l-37 147q152 45 295 45q158 -4 256 -151q76 -47 123 -134.5t53 -191.5v-21q-4 -172 -4 -335q0 -281 60 -347h-209v41q-94 -61 -207 -61q-94 0 -174 44t-129 118 q-70 45 -112 118.5t-42 157.5zM72 309q0 -131 98 -223t236 -92q129 0 227 82v-62h141q-33 35 -33 326l4 336v20q-8 145 -97 249t-212 106q-137 0 -270 -39l27 -107q113 33 241 33q88 -2 143.5 -84t55.5 -199v-28h-213q-143 0 -245.5 -91.5t-102.5 -226.5zM82 1190 q113 76 221 76q47 0 100 -17h-6h2q2 -2 4 -2q43 -14 70 -14q96 0 168 65l57 -118q-37 -29 -69 -43q70 18 114 59l58 -119q-96 -78 -217 -78q-72 0 -117 23v-2q-35 10 -59 10q-86 0 -156 -63l-68 120q37 25 60 35q-47 -14 -94 -53zM109 1184l47 -82q57 51 149 51q31 0 66 -10 l-2 2q49 -23 112 -23q113 0 193 64l-39 80q-59 -53 -162 -54q-23 0 -76 16.5t-94 16.5q-104 0 -194 -61zM184 309q0 90 69 148.5t167 58.5h213v-207q0 -84 -66.5 -142t-160.5 -58q-92 0 -157 58t-65 142zM307 207q0 -31 10 -62q43 -16 89 -16q86 0 146 52t60 128v84h-90 q-90 0 -152.5 -52t-62.5 -134z" />
<glyph unicode="&#xe4;" horiz-adv-x="966" d="M47 309q0 145 108.5 241.5t260.5 96.5h192v8q0 86 -30 150q-14 6 -46 10q-119 0 -256 -39l-30 121l-72 -18l-37 147q152 45 295 45q158 -4 256 -151q76 -47 123 -134.5t53 -191.5v-21q-4 -172 -4 -335q0 -281 60 -347h-209v41q-94 -61 -207 -61q-94 0 -174 44t-129 118 q-70 45 -112 118.5t-42 157.5zM68 309q0 -131 98 -223t235 -92q129 0 228 82v-62h141q-33 35 -33 326l4 336v20q-8 145 -97 249t-212 106q-137 0 -270 -39l26 -107q113 33 242 33q88 -2 143.5 -84t55.5 -199v-28h-213q-143 0 -245.5 -91.5t-102.5 -226.5zM180 309 q0 90 68.5 148.5t167.5 58.5h213v-207q0 -84 -66.5 -142t-161.5 -58q-92 0 -156.5 58t-64.5 142zM195 1309q0 37 26.5 62.5t65.5 25.5q35 0 63.5 -27t28.5 -61q0 -10 -2 -15h12q35 0 63.5 -26.5t28.5 -61.5q0 -33 -28.5 -60.5t-63.5 -27.5q-39 0 -65.5 26.5t-26.5 61.5v15 h-10q-39 0 -65.5 26.5t-26.5 61.5zM215 1309q0 -27 20.5 -47.5t51.5 -20.5q29 0 50 20.5t21 47t-21.5 47t-49.5 20.5q-31 0 -51.5 -19t-20.5 -48zM303 207q0 -31 10 -62q43 -16 88 -16q86 0 146.5 52t60.5 128v84h-90q-90 0 -152.5 -52t-62.5 -134zM461 1308.5 q0 34.5 27.5 61.5t64.5 27t64.5 -27t27.5 -61q0 -10 -2 -17q2 0 6 1t6 1q37 0 65 -26.5t28 -61.5t-28 -61.5t-65 -26.5t-64.5 26.5t-27.5 61.5v15h-10q-37 0 -64.5 26.5t-27.5 61zM481 1308.5q0 -26.5 21.5 -47t50.5 -20.5t50.5 20.5t21.5 47t-21.5 47t-50.5 20.5 t-50.5 -20.5t-21.5 -47z" />
<glyph unicode="&#xe5;" horiz-adv-x="976" d="M155 1507q0 100 66.5 166t169.5 66q137 0 198 -125q57 -27 92 -82.5t35 -126.5q0 -94 -64.5 -160t-158.5 -66q-72 0 -128 35t-85 92q-125 62 -125 201zM176 1507q0 -86 61.5 -145.5t153.5 -59.5q84 0 143 60.5t59 144.5q0 90 -58 150.5t-144 60.5q-92 0 -153.5 -60.5 t-61.5 -150.5zM260 1507q0 51 39.5 92t91.5 41q43 0 80.5 -42t37.5 -91q0 -47 -37.5 -86t-80.5 -39q-51 0 -91 39t-40 86zM280 1507q37 78 119 113h-8q-43 0 -77 -35t-34 -78zM382 1403h9q35 0 66.5 32.5t31.5 71.5v10q-41 -4 -74 -37.5t-33 -74.5v-2zM481 1300h12 q35 0 66.5 33t31.5 72v2q-36 -76 -110 -107zM51 295q0 145 108.5 241.5t260.5 96.5h192v8q0 84 -30 150q-14 6 -45 10q-119 0 -256 -39l-31 121l-72 -19l-37 148q152 45 295 45q158 -4 256 -152q76 -47 123 -134t53 -191v-21q-4 -172 -4 -336q0 -281 60 -346h-209v41 q-94 -61 -207 -61q-94 0 -174 44t-129 117q-70 45 -112 119t-42 158zM72 295q0 -131 98 -223t236 -92q129 0 227 81v-61h141q-33 35 -33 326l4 336v20q-8 145 -97 248.5t-212 105.5q-137 0 -270 -39l27 -106q113 33 241 33q88 -2 143.5 -84t55.5 -199v-29h-213 q-143 0 -245.5 -91t-102.5 -226zM184 295q0 90 69 148.5t167 58.5h213v-207q0 -84 -66.5 -142.5t-160.5 -58.5q-92 0 -157 58.5t-65 142.5zM307 193q0 -31 10 -62q43 -16 89 -16q86 0 146 52t60 128v84h-90q-90 0 -152.5 -52t-62.5 -134z" />
<glyph unicode="&#xe6;" horiz-adv-x="1628" d="M61 295q0 141 104.5 239.5t252.5 98.5h198q0 2 1 7t1 7q4 16 5 19q-4 74 -29 125q-14 6 -47 10q-123 0 -254 -39l-33 121l-70 -19l-38 148q158 45 294 45q160 -6 256 -152q2 -2 10.5 -7t12.5 -9q127 170 311 170q193 0 318 -172q98 -70 155.5 -194t57.5 -275v-82h-693 v-49q18 -78 62 -137q55 -37 123 -37q102 0 274 84l56 -125q6 2 22 10l25 12l61 -135q-121 -68 -280 -98q-16 -2 -56 -2q-152 0 -276 108q16 -51 69 -90h-229v41q-94 -61 -205 -61q-94 0 -175 44t-130 117q-70 45 -112 119t-42 158zM82 295q0 -131 98.5 -223t237.5 -92 q127 0 225 81v-61h150q-35 29 -39 131q123 -150 305 -149q37 0 53 2q143 27 256 88l-45 98q-156 -78 -264 -78q-104 0 -190.5 84t-116.5 209v74h692v61q0 219 -118 368.5t-290 149.5q-94 0 -178 -53t-141 -145q-41 88 -113 141t-158 55q-135 0 -270 -39l29 -106 q111 33 239 33q82 -4 139.5 -77t59.5 -181q0 -6 -4 -25.5t-6 -28.5h-215q-139 0 -237.5 -93t-98.5 -224zM197 295q0 86 64.5 146.5t156.5 60.5h209v-29q2 -63 16 -121v-57q0 -84 -66.5 -142.5t-158.5 -58.5q-94 0 -157.5 58.5t-63.5 142.5zM319 193q0 -31 11 -62 q35 -16 88 -16q84 0 144.5 52t60.5 128v53q-4 12 -7 31h-96q-84 0 -142.5 -54t-58.5 -132zM754 567q2 154 85 255.5t197.5 101.5t198.5 -101.5t98 -255.5h-579zM895 588h414q-16 109 -64 182q-49 31 -106 31q-82 0 -148.5 -58.5t-95.5 -154.5z" />
<glyph unicode="&#xe7;" horiz-adv-x="1083" d="M37 510q0 225 149.5 386t364.5 161q221 0 391 -193l-6 -6q59 -41 108 -96l-106 -107q-135 145 -284.5 145.5t-255 -115.5t-105.5 -277q0 -135 69 -236q86 -57 189 -57q150 0 274 137l111 -105l-4 -4l106 -98q-145 -158 -338 -184q37 -18 67 -54t30 -79q0 -78 -135 -162 l-152 119q4 2 12 3t13 1l-127 98q113 16 135 27v36q-16 12 -51 13l-5 -2h-6h-43l2 47q-111 51 -190 153q-100 76 -156.5 193t-56.5 256zM57 510q0 -195 116 -340t290 -180l-4 -109h22h4q4 2 7 2q86 0 86 -57q0 -20 -38 -35.5t-77 -19.5l98 -78q113 70 113 137q0 41 -34 77 t-67 46l11 29q188 18 323 163l-80 78q-119 -129 -276.5 -129t-269 121t-111.5 295q0 172 111.5 293t269.5 121t285 -138l77 78q-152 172 -362 172q-205 0 -349.5 -154.5t-144.5 -371.5zM604 -299q55 10 55 23q0 10 -8 18q-20 -21 -47 -41z" />
<glyph unicode="&#xe8;" horiz-adv-x="933" d="M-12 471v39q0 227 127 388t305 161q190 0 315 -172q98 -68 155.5 -193t57.5 -276v-82h-700q12 -106 63 -186q57 -37 131 -37q102 0 275 84l55 -125q23 8 47 22l60 -135q-135 -74 -279 -98q-16 -2 -55 -2q-201 0 -340 182q-92 70 -150.5 182.5t-66.5 247.5zM8 473 q12 -207 138 -349t296 -142q37 0 54 2q141 27 254 88l-43 98q-156 -78 -265 -78q-127 2 -218 105.5t-101 261.5h702v61q0 219 -116.5 368.5t-288.5 149.5q-170 0 -291 -155.5t-121 -372.5v-37zM125 567q20 152 103 254.5t192 102.5q115 0 198.5 -101.5t98.5 -255.5h-592z M129 1393h248l76 -103h26l180 -241h-122l-306 241h27zM188 1372l252 -201h76l-149 201h-179zM281 588h411q-16 109 -63 182q-49 31 -107 31q-76 0 -140 -58.5t-101 -154.5z" />
<glyph unicode="&#xe9;" horiz-adv-x="933" d="M-12 471v39q0 227 127 388t305 161q190 0 315 -172q98 -68 155.5 -193t57.5 -276v-82h-700q12 -106 63 -186q57 -37 131 -37q102 0 275 84l55 -125q23 8 47 22l60 -135q-135 -74 -279 -98q-16 -2 -55 -2q-201 0 -340 182q-92 70 -150.5 182.5t-66.5 247.5zM8 473 q12 -207 138 -349t296 -142q37 0 54 2q141 27 254 88l-43 98q-156 -78 -265 -78q-127 2 -218 105.5t-101 261.5h702v61q0 219 -116.5 368.5t-288.5 149.5q-170 0 -291 -155.5t-121 -372.5v-37zM125 567q20 152 103 254.5t192 102.5q115 0 198.5 -101.5t98.5 -255.5h-592z M281 588h411q-16 109 -63 182q-49 31 -107 31q-76 0 -140 -58.5t-101 -154.5zM311 1176l183 241h243l-129 -102h232l-301 -242h-125l159 213l-137 -110h-125zM352 1196h78l250 201h-176z" />
<glyph unicode="&#xea;" horiz-adv-x="933" d="M-12 471v39q0 227 127 388t305 161q190 0 315 -172q98 -68 155.5 -193t57.5 -276v-82h-700q12 -106 63 -186q57 -37 131 -37q102 0 275 84l55 -125q23 8 47 22l60 -135q-135 -74 -279 -98q-16 -2 -55 -2q-201 0 -340 182q-92 70 -150.5 182.5t-66.5 247.5zM8 473 q12 -207 138 -349t296 -142q37 0 54 2q141 27 254 88l-43 98q-156 -78 -265 -78q-127 2 -218 105.5t-101 261.5h702v61q0 219 -116.5 368.5t-288.5 149.5q-170 0 -291 -155.5t-121 -372.5v-37zM125 567q20 152 103 254.5t192 102.5q115 0 198.5 -101.5t98.5 -255.5h-592z M156 1274l262 260l102 -102l162 -160l102 -103l-100 -98l-102 103l-64 61l-164 -164l-96 100l164 162l-4 6l-166 -165zM184 1274l68 -72l166 166l164 -166l71 70l-235 233zM281 588h411q-16 109 -63 182q-49 31 -107 31q-76 0 -140 -58.5t-101 -154.5z" />
<glyph unicode="&#xeb;" horiz-adv-x="933" d="M-12 471v39q0 227 127 388t305 161q190 0 315 -172q98 -68 155.5 -193t57.5 -276v-82h-700q12 -106 63 -186q57 -37 131 -37q102 0 275 84l55 -125q23 8 47 22l60 -135q-135 -74 -279 -98q-16 -2 -55 -2q-201 0 -340 182q-92 70 -150.5 182.5t-66.5 247.5zM8 473 q12 -207 138 -349t296 -142q37 0 54 2q141 27 254 88l-43 98q-156 -78 -265 -78q-127 2 -218 105.5t-101 261.5h702v61q0 219 -116.5 368.5t-288.5 149.5q-170 0 -291 -155.5t-121 -372.5v-37zM125 567q20 152 103 254.5t192 102.5q115 0 198.5 -101.5t98.5 -255.5h-592z M184 1308.5q0 34.5 28 61.5t64 27q35 0 64 -27t29 -61q0 -10 -2 -17q2 0 6 1t6 1q35 0 63.5 -26.5t28.5 -61.5q0 -33 -28.5 -60.5t-63.5 -27.5q-37 0 -64.5 26.5t-27.5 61.5v15h-11q-37 0 -64.5 26.5t-27.5 61zM205 1308.5q0 -26.5 21.5 -47t50 -20.5t50 20.5t21.5 47 t-21.5 47t-50 20.5t-50 -20.5t-21.5 -47zM281 588h411q-16 109 -63 182q-49 31 -107 31q-76 0 -140 -58.5t-101 -154.5zM451 1308.5q0 34.5 27.5 61.5t64.5 27t64.5 -27t27.5 -61q0 -10 -2 -17q2 0 6 1t6 1q37 0 64.5 -26.5t27.5 -61.5t-27.5 -61.5t-64.5 -26.5t-64.5 26.5 t-27.5 61.5v15h-10q-37 0 -64.5 26.5t-27.5 61zM471 1308.5q0 -26.5 21.5 -47t50 -20.5t50 20.5t21.5 47t-21.5 47t-50 20.5t-50 -20.5t-21.5 -47z" />
<glyph unicode="&#xec;" horiz-adv-x="579" d="M25 1407h247l76 -102h27l180 -242h-123l-305 242h27zM84 1386l252 -200h76l-150 200h-178zM207 -20v1064h149v-102h103v-1065h-150v103h-102zM227 0h109v1024h-109v-1024z" />
<glyph unicode="&#xed;" horiz-adv-x="598" d="M35 1190l182 242h244l-129 -103h231l-301 -242h-125l160 213l-137 -110h-125zM76 1210h78l249 201h-176zM80 -20v1064h151v-102h103v-1065h-152v103h-102zM100 0h111v1024h-111v-1024z" />
<glyph unicode="&#xee;" horiz-adv-x="673" d="M23 1288l262 260l102 -102l162 -160l102 -102l-100 -99l-102 103l-64 61l-164 -164l-96 101l164 162l-4 6l-166 -166zM51 1288l68 -71l166 165l164 -165l71 69l-235 234zM184 -20v1064h150v-102h102v-1065h-149v103h-103zM205 0h108v1024h-108v-1024z" />
<glyph unicode="&#xef;" horiz-adv-x="550" d="M37 1308.5q0 34.5 27.5 61.5t64.5 27t64.5 -27t27.5 -61q0 -10 -2 -17q2 0 6 2v15q0 37 27 62.5t65 25.5q35 0 64 -27t29 -61q0 -10 -2 -15h12q35 0 63.5 -26.5t28.5 -61.5q0 -33 -28.5 -60.5t-63.5 -27.5q-39 0 -65.5 26.5t-26.5 61.5v15h-6q2 -4 2 -15q0 -35 -28 -61.5 t-64.5 -26.5t-64.5 26.5t-28 61.5v15h-10q-37 0 -64.5 26.5t-27.5 61zM57 1308.5q0 -26.5 21.5 -47t50.5 -20.5t50.5 20.5t21.5 47t-21.5 47t-50.5 20.5t-50.5 -20.5t-21.5 -47zM145 -20v1064h150v-102h102v-1065h-149v103h-103zM166 0h108v1024h-108v-1024zM246 1309 q0 -27 20.5 -47.5t50.5 -20.5q29 0 50.5 20.5t21.5 47t-21.5 47t-50.5 20.5q-31 0 -51 -19t-20 -48z" />
<glyph unicode="&#xf0;" horiz-adv-x="1001" d="M-4 973v14q0 184 131 316.5t317 132.5q221 0 359 -189q84 -59 136 -153.5t60 -200.5q6 -86 7 -283v-53q0 -182 -25 -311q-33 -170 -165 -276.5t-306 -106.5q-104 0 -205.5 55t-175.5 148q-55 43 -102 102l135 113q41 -61 100 -105l2 2q2 -2 2 -4t2 -4q74 -49 154 -49 q117 0 203 74.5t110 187.5v-2q12 102 13 106q-94 -47 -205 -47t-208 50.5t-159 138.5q-82 59 -130 149.5t-50 194.5zM16 973q2 -170 128 -290t296 -120q98 0 187.5 42t150.5 112v-25q0 -162 -22 -313q-27 -121 -118 -200t-216 -79q-160 0 -264 150l-103 -84q66 -82 160 -131 t193 -49q166 0 292.5 102t157.5 264q25 129 25 307v54q0 195 -6 280q-14 174 -138.5 298t-294.5 124q-178 0 -303 -126t-125 -302v-14zM123 977q0 131 94 227t229 96q125 0 221.5 -92t96.5 -217q0 -133 -94.5 -225t-229.5 -92q-125 0 -217 88t-100 215zM246 877 q2 -72 43 -140q74 -43 151 -43q127 0 215 86t88 211q0 76 -41 142q-72 45 -153 45q-125 0 -214 -90t-89 -211z" />
<glyph unicode="&#xf1;" horiz-adv-x="1054" d="M61 1051h211v-70q92 94 244 94q184 0 295 -162q80 -53 128 -142t50 -198l4 -682h-153v103h-103v682q-4 68 -30 119q-47 25 -99 24q-78 0 -144.5 -65.5t-88.5 -155.5v-707h-152v103h-102v938q0 27 -20 63t-40 56zM111 1030q31 -31 30 -98v-918h111v691q23 98 94.5 167.5 t159.5 69.5q102 0 176 -77t76 -189v-662h112l-4 662q-4 160 -105.5 269.5t-244.5 109.5q-160 0 -264 -127v102h-141zM113 1284q100 68 217 68q49 0 86 -13q2 0 11 -4t13 -6h-2q41 -12 72 -12q80 0 156 65l63 -125q-20 -16 -55 -32q57 23 94 55l63 -125q-106 -72 -221 -72 q-78 0 -123 27l25 33l-20 -35q-31 10 -66 10q-63 0 -158 -59l-53 123q25 18 49 28q-43 -16 -98 -49zM137 1276l39 -86q78 51 148 51q43 0 73 -12l-2 2q43 -25 113 -25q111 0 194 58l-43 86q-63 -53 -149 -54q-29 0 -82 17q-63 18 -98 18q-113 0 -193 -55z" />
<glyph unicode="&#xf2;" horiz-adv-x="1079" d="M-10 506q0 227 147.5 389t354.5 162q231 0 382 -199q100 -76 159 -194.5t59 -260.5q0 -225 -145.5 -385.5t-352.5 -160.5q-233 0 -385 198q-102 76 -160.5 195t-58.5 256zM10 506q0 -217 141.5 -371.5t340 -154.5t338 154.5t139.5 371.5q0 219 -139.5 374.5t-338 155.5 t-340 -155.5t-141.5 -374.5zM123 506q0 174 107.5 296t261.5 122q152 0 258 -122t106 -296q0 -170 -107.5 -292t-256.5 -122q-154 0 -261.5 122t-107.5 292zM205 1393h248l75 -103h27l180 -241h-123l-305 241h27zM246 403q0 -131 69 -237q78 -53 177 -53q141 0 242.5 115.5 t101.5 277.5q0 133 -72 242q-78 53 -170 53q-143 0 -245.5 -117t-102.5 -281zM264 1372l252 -201h76l-150 201h-178z" />
<glyph unicode="&#xf3;" horiz-adv-x="1079" d="M-10 506q0 227 147.5 389t354.5 162q231 0 382 -199q100 -76 159 -194.5t59 -260.5q0 -225 -145.5 -385.5t-352.5 -160.5q-233 0 -385 198q-102 76 -160.5 195t-58.5 256zM10 506q0 -217 141.5 -371.5t340 -154.5t338 154.5t139.5 371.5q0 219 -139.5 374.5t-338 155.5 t-340 -155.5t-141.5 -374.5zM123 506q0 174 107.5 296t261.5 122q152 0 258 -122t106 -296q0 -170 -107.5 -292t-256.5 -122q-154 0 -261.5 122t-107.5 292zM246 403q0 -131 69 -237q78 -53 177 -53q141 0 242.5 115.5t101.5 277.5q0 133 -72 242q-78 53 -170 53 q-143 0 -245.5 -117t-102.5 -281zM399 1176l183 241h243l-129 -102h232l-301 -242h-125l160 213l-138 -110h-125zM440 1196h78l250 201h-176z" />
<glyph unicode="&#xf4;" horiz-adv-x="1050" d="M-25 506q0 227 147.5 389t354.5 162q231 0 383 -199q100 -76 158.5 -194.5t58.5 -260.5q0 -225 -145.5 -385.5t-351.5 -160.5q-233 0 -385 198q-102 76 -161 195t-59 256zM-4 506q0 -217 141.5 -371.5t340 -154.5t337.5 154.5t139 371.5q0 219 -139 374.5t-337.5 155.5 t-340 -155.5t-141.5 -374.5zM109 506q0 174 107.5 296t260.5 122q152 0 258.5 -122t106.5 -296q0 -170 -107.5 -292t-257.5 -122q-154 0 -261 122t-107 292zM203 1274l262 260l102 -102l162 -160l102 -103l-100 -98l-102 103l-64 61l-164 -164l-96 100l164 162l-4 6 l-166 -165zM231 403q0 -131 70 -237q78 -53 176 -53q141 0 242.5 115.5t101.5 277.5q0 133 -71 242q-78 53 -170 53q-143 0 -246 -117t-103 -281zM231 1274l68 -72l166 166l164 -166l71 70l-235 233z" />
<glyph unicode="&#xf5;" horiz-adv-x="1050" d="M-25 506q0 227 147.5 389t354.5 162q231 0 383 -199q100 -76 158.5 -194.5t58.5 -260.5q0 -225 -145.5 -385.5t-351.5 -160.5q-233 0 -385 198q-102 76 -161 195t-59 256zM-4 506q0 -217 141.5 -371.5t340 -154.5t337.5 154.5t139 371.5q0 219 -139 374.5t-337.5 155.5 t-340 -155.5t-141.5 -374.5zM109 506q0 174 107.5 296t260.5 122q152 0 258.5 -122t106.5 -296q0 -170 -107.5 -292t-257.5 -122q-154 0 -261 122t-107 292zM178 1376q94 49 178 49q41 0 125 -24q2 0 8.5 -2t8.5 -4q61 -27 110 -27q59 0 133 45l45 -127q-4 -2 -11 -6t-11 -6 q39 12 80 37l45 -127q-88 -51 -178 -51q-92 0 -203 67l41 -24q-39 14 -90 14q-57 0 -131 -45l-47 129q2 0 5 2t5 4q-20 -8 -66 -33zM203 1366l33 -88q57 35 120 35q55 0 99 -17h-2q63 -41 155 -41q82 0 154 41l-31 88q-57 -37 -123 -36q-47 0 -116 28q-86 29 -136 29 q-79 0 -153 -39zM231 403q0 -131 70 -237q78 -53 176 -53q141 0 242.5 115.5t101.5 277.5q0 133 -71 242q-78 53 -170 53q-143 0 -246 -117t-103 -281z" />
<glyph unicode="&#xf6;" horiz-adv-x="1079" d="M-10 506q0 227 147.5 389t354.5 162q231 0 382 -199q100 -76 159 -194.5t59 -260.5q0 -225 -145.5 -385.5t-352.5 -160.5q-233 0 -385 198q-102 76 -160.5 195t-58.5 256zM10 506q0 -217 141.5 -371.5t340 -154.5t338 154.5t139.5 371.5q0 219 -139.5 374.5t-338 155.5 t-340 -155.5t-141.5 -374.5zM123 506q0 174 107.5 296t261.5 122q152 0 258 -122t106 -296q0 -170 -107.5 -292t-256.5 -122q-154 0 -261.5 122t-107.5 292zM246 403q0 -131 69 -237q78 -53 177 -53q141 0 242.5 115.5t101.5 277.5q0 133 -72 242q-78 53 -170 53 q-143 0 -245.5 -117t-102.5 -281zM270 1308.5q0 34.5 28 61.5t64 27q35 0 64 -27t29 -61q0 -10 -2 -17q2 0 6 1t6 1q35 0 63.5 -26.5t28.5 -61.5q0 -33 -28.5 -60.5t-63.5 -27.5q-37 0 -64.5 26.5t-27.5 61.5v15h-11q-37 0 -64.5 26.5t-27.5 61zM291 1308.5 q0 -26.5 21.5 -47t50 -20.5t50 20.5t21.5 47t-21.5 47t-50 20.5t-50 -20.5t-21.5 -47zM537 1308.5q0 34.5 27.5 61.5t64.5 27t64.5 -27t27.5 -61q0 -10 -2 -17q2 0 6 1t6 1q37 0 64.5 -26.5t27.5 -61.5t-27.5 -61.5t-64.5 -26.5t-64.5 26.5t-27.5 61.5v15h-10 q-37 0 -64.5 26.5t-27.5 61zM557 1308.5q0 -26.5 21.5 -47t50 -20.5t50 20.5t21.5 47t-21.5 47t-50 20.5t-50 -20.5t-21.5 -47z" />
<glyph unicode="&#xf7;" horiz-adv-x="907" d="M25 539v151h755v-102h103v-152h-756v103h-102zM45 559h715v111h-715v-111zM285 258v197h196v-103h103v-196h-197v102h-102zM285 750v196h196v-102h103v-197h-197v103h-102zM305 279h156v155h-156v-155zM305 770h156v156h-156v-156z" />
<glyph unicode="&#xf8;" horiz-adv-x="1208" d="M53 506q0 227 147.5 389t354.5 162q213 0 383 -197l-4 -4q49 -33 106 -98l-34 -31l2 -2v-2l34 29q113 -176 113 -349q0 -225 -145.5 -385.5t-352.5 -160.5q-229 0 -391 206q-61 47 -112 117l34 33v4l-2 4l-41 -35q-92 173 -92 320zM74 506q0 -143 78 -287l84 74 q-49 96 -50 213q0 174 107.5 296t261.5 122q152 0 266 -136l86 74q-152 174 -352 174q-199 0 -340 -155.5t-141 -374.5zM180 178q150 -199 375 -198q199 0 338 154.5t139 371.5q0 164 -96 317l-88 -73q72 -117 72 -244q0 -170 -107.5 -292t-257.5 -122q-174 0 -293 160z M309 403q0 -109 56 -217l-5 -2q94 -72 195 -71q141 0 242.5 115.5t101.5 277.5q0 115 -74 235q-82 59 -168 60q-143 0 -245.5 -117t-102.5 -281z" />
<glyph unicode="&#xf9;" horiz-adv-x="921" d="M-2 358v682h152v-102h102v-668l2 -10q2 -63 33 -119q45 -25 98 -24q78 0 143.5 66.5t83.5 154.5v706h152v-102h102v-934q0 -29 19.5 -69.5t40.5 -61.5h-211v76q-104 -94 -242 -94q-180 0 -293 159q-78 53 -126 141.5t-50 192.5zM18 367q4 -4 7 -9q4 -158 104 -267 t242 -109q152 0 262 127v-109h141q-10 10 -20.5 44t-10.5 67v913h-110v-690q-18 -96 -88 -167t-160 -71q-100 0 -175 79t-79 187l-2 11v647h-111v-653zM125 1393h248l76 -103h26l180 -241h-123l-305 241h27zM184 1372l252 -201h76l-150 201h-178z" />
<glyph unicode="&#xfa;" horiz-adv-x="921" d="M-2 358v682h152v-102h102v-668l2 -10q2 -63 33 -119q45 -25 98 -24q78 0 143.5 66.5t83.5 154.5v706h152v-102h102v-934q0 -29 19.5 -69.5t40.5 -61.5h-211v76q-104 -94 -242 -94q-180 0 -293 159q-78 53 -126 141.5t-50 192.5zM18 367q4 -4 7 -9q4 -158 104 -267 t242 -109q152 0 262 127v-109h141q-10 10 -20.5 44t-10.5 67v913h-110v-690q-18 -96 -88 -167t-160 -71q-100 0 -175 79t-79 187l-2 11v647h-111v-653zM287 1176l182 241h244l-129 -102h231l-301 -242h-125l160 213l-137 -110h-125zM328 1196h78l249 201h-176z" />
<glyph unicode="&#xfb;" horiz-adv-x="921" d="M-2 358v682h152v-102h102v-668l2 -10q2 -63 33 -119q45 -25 98 -24q78 0 143.5 66.5t83.5 154.5v706h152v-102h102v-934q0 -29 19.5 -69.5t40.5 -61.5h-211v76q-104 -94 -242 -94q-180 0 -293 159q-78 53 -126 141.5t-50 192.5zM18 367q4 -4 7 -9q4 -158 104 -267 t242 -109q152 0 262 127v-109h141q-10 10 -20.5 44t-10.5 67v913h-110v-690q-18 -96 -88 -167t-160 -71q-100 0 -175 79t-79 187l-2 11v647h-111v-653zM147 1274l263 260l102 -102l162 -160l102 -103l-100 -98l-103 103l-63 61l-164 -164l-96 100l164 162l-4 6l-166 -165z M176 1274l68 -72l166 166l163 -166l72 70l-235 233z" />
<glyph unicode="&#xfc;" horiz-adv-x="921" d="M-2 358v682h152v-102h102v-668l2 -10q2 -63 33 -119q45 -25 98 -24q78 0 143.5 66.5t83.5 154.5v706h152v-102h102v-934q0 -29 19.5 -69.5t40.5 -61.5h-211v76q-104 -94 -242 -94q-180 0 -293 159q-78 53 -126 141.5t-50 192.5zM18 367q4 -4 7 -9q4 -158 104 -267 t242 -109q152 0 262 127v-109h141q-10 10 -20.5 44t-10.5 67v913h-110v-690q-18 -96 -88 -167t-160 -71q-100 0 -175 79t-79 187l-2 11v647h-111v-653zM176 1308.5q0 34.5 27.5 61.5t64.5 27q35 0 63.5 -27t28.5 -61q0 -10 -2 -17q2 0 6.5 1t6.5 1q35 0 63.5 -26.5 t28.5 -61.5q0 -33 -28.5 -60.5t-63.5 -27.5q-37 0 -64.5 26.5t-27.5 61.5v15h-11q-37 0 -64.5 26.5t-27.5 61zM197 1308.5q0 -26.5 21.5 -47t50 -20.5t50 20.5t21.5 47t-21.5 47t-50 20.5t-50 -20.5t-21.5 -47zM442 1308.5q0 34.5 28 61.5t64.5 27t64.5 -27t28 -61 q0 -10 -2 -17q2 0 6 1t6 1q37 0 64.5 -26.5t27.5 -61.5t-27.5 -61.5t-64.5 -26.5t-64.5 26.5t-27.5 61.5v15h-10q-37 0 -65 26.5t-28 61zM463 1308.5q0 -26.5 21.5 -47t50 -20.5t50 20.5t21.5 47t-21.5 47t-50 20.5t-50 -20.5t-21.5 -47z" />
<glyph unicode="&#xfd;" horiz-adv-x="1095" d="M23 1057h163l41 -103h62l239 -604l168 428l111 279h164l-43 -103h145l-399 -985q-6 -14 -17.5 -47t-17.5 -47q-2 -8 -23.5 -59.5t-29.5 -77.5q-45 -119 -143.5 -189.5t-204.5 -70.5q-49 0 -111 16l10 86h-2q-49 0 -110 17l22 176q41 -41 92 -41q61 0 119.5 43t87.5 121 q6 16 19.5 47.5t19.5 48.5q2 6 14.5 37.5l20.5 50.5l-58 145zM47 -387q43 -12 88 -12q100 0 194.5 66.5t135.5 178.5q14 45 46 126l42 108l-2 -2l389 958h-119l-323 -815l-326 815h-119l389 -956l-77 -193q-31 -84 -93.5 -130t-132.5 -46q-59 0 -76 17zM438 1176l183 241 h243l-129 -102h232l-301 -242h-125l159 213l-137 -110h-125zM479 1196h78l250 201h-176z" />
<glyph unicode="&#xfe;" horiz-adv-x="1120" d="M45 -412v1839h154v-102h102v-281q76 16 158 17q246 -6 399 -207q100 -74 158.5 -191.5t58.5 -250.5q0 -231 -149.5 -392t-364.5 -161q-129 0 -262 57v-430h-152v102h-102zM66 -391h110v442q156 -70 283 -69q205 0 349 155.5t144 376.5q0 215 -143 368.5t-350 157.5 q-160 0 -281 -67v434h-112v-1798zM172 829q16 39 98 68t189 29q154 0 267.5 -124t113.5 -290q0 -170 -113 -292t-268 -126q-78 2 -143.5 16.5t-102.5 39t-35 51.5zM295 723l6 -590q63 -14 158 -18q147 4 253.5 119.5t106.5 277.5q0 123 -74 233q-90 57 -184 58 q-96 0 -172 -23.5t-94 -56.5z" />
<glyph unicode="&#xff;" horiz-adv-x="1095" d="M23 1057h163l41 -103h62l239 -604l168 428l111 279h164l-43 -103h145l-399 -985q-6 -14 -17.5 -47t-17.5 -47q-2 -8 -23.5 -59.5t-29.5 -77.5q-45 -119 -143.5 -189.5t-204.5 -70.5q-49 0 -111 16l10 86h-2q-49 0 -110 17l22 176q41 -41 92 -41q61 0 119.5 43t87.5 121 q6 16 19.5 47.5t19.5 48.5q2 6 14.5 37.5l20.5 50.5l-58 145zM47 -387q43 -12 88 -12q100 0 194.5 66.5t135.5 178.5q14 45 46 126l42 108l-2 -2l389 958h-119l-323 -815l-326 815h-119l389 -956l-77 -193q-31 -84 -93.5 -130t-132.5 -46q-59 0 -76 17zM307 1308.5 q0 34.5 27.5 61.5t64.5 27q35 0 64 -27t29 -61q0 -10 -3 -17q2 0 6.5 1t6.5 1q35 0 63.5 -26.5t28.5 -61.5q0 -33 -28.5 -60.5t-63.5 -27.5q-37 0 -64.5 26.5t-27.5 61.5v15h-11q-37 0 -64.5 26.5t-27.5 61zM328 1308.5q0 -26.5 21.5 -47t50 -20.5t50 20.5t21.5 47t-21.5 47 t-50 20.5t-50 -20.5t-21.5 -47zM573 1308.5q0 34.5 28 61.5t64.5 27t64.5 -27t28 -61q0 -10 -2 -17q2 0 6 1t6 1q37 0 64.5 -26.5t27.5 -61.5t-27.5 -61.5t-64.5 -26.5t-64.5 26.5t-27.5 61.5v15h-10q-37 0 -65 26.5t-28 61zM594 1308.5q0 -26.5 21.5 -47t50 -20.5t50 20.5 t21.5 47t-21.5 47t-50 20.5t-50 -20.5t-21.5 -47z" />
<glyph unicode="&#x152;" horiz-adv-x="2285" d="M68 707q0 307 194.5 522t468.5 215q313 0 488 -223q2 -2 26 -21v236h871v-103h102v-149h-717v-355h510v-102h103v-154h-613v-440h615v-102h102v-154h-870v103h-103v32q-180 -154 -411 -153q-141 0 -268.5 63.5t-221.5 177.5q-127 102 -201.5 260.5t-74.5 346.5zM88 707 q0 -305 190.5 -515t452.5 -210q266 0 449 198q41 43 86 113v-293h829v113h-717v583h613v113h-613v498h717v108h-829v-299q-180 307 -535 307q-266 0 -454.5 -209.5t-188.5 -506.5zM203 707q0 252 154.5 427t373.5 175q223 0 367 -160q150 -156 168 -391v-105 q-23 -233 -173.5 -395t-361.5 -162q-223 0 -375.5 177.5t-152.5 433.5zM326 604q0 -227 127 -393q127 -94 278 -94q197 0 343.5 157.5t170.5 380.5v101q-14 195 -125 334q-125 96 -286 96q-211 0 -359.5 -170t-148.5 -412z" />
<glyph unicode="&#x153;" horiz-adv-x="1947" d="M63 506q0 227 147.5 389t354.5 162q111 0 211.5 -55.5t171.5 -147.5q25 -18 45 -39q57 115 151.5 179.5t209.5 64.5q193 0 317 -172q98 -70 155.5 -194t57.5 -275v-82h-702q12 -106 63 -186q57 -37 131 -37q102 0 275 84l55 -125q6 2 23 10l24 12l62 -135 q-121 -68 -281 -98q-16 -2 -55 -2q-205 0 -336 178q-31 23 -66 57q-72 -109 -179 -173t-230 -64q-233 0 -385 198q-102 76 -161 195t-59 256zM84 506q0 -217 141.5 -371.5t339.5 -154.5q135 0 250 79.5t176 206.5q55 -129 158.5 -206.5t226.5 -77.5q37 0 54 2q143 27 256 88 l-46 98q-156 -78 -264 -78q-127 2 -218 105.5t-101 261.5h704v61q0 219 -117.5 368.5t-289.5 149.5q-115 0 -213.5 -79.5t-151.5 -206.5q-61 127 -176 205.5t-248 78.5q-199 0 -340 -155.5t-141 -374.5zM195 506q0 174 108.5 296t261.5 122q150 0 256.5 -122t106.5 -296 q0 -170 -106.5 -292t-256.5 -122q-154 0 -262 122t-108 292zM317 403q0 -135 70 -235q82 -55 178 -55q141 0 241.5 115.5t100.5 277.5q0 137 -71 244q-80 51 -168 51q-145 0 -248 -117t-103 -281zM1059 567q20 152 103 254.5t192 102.5q115 0 198.5 -101.5t98.5 -255.5h-592 zM1214 588h412q-16 109 -63 182q-49 31 -107 31q-76 0 -140.5 -58.5t-101.5 -154.5z" />
<glyph unicode="&#x178;" horiz-adv-x="1394" d="M-33 1436h201l74 -103h28l387 -532l113 151l358 484h199l-78 -103h181l-603 -805v-651h-155v103h-103v651l-168 223zM8 1415l582 -778v-637h115v637l581 778h-147l-494 -667l-487 667h-150zM418 1519.5q0 34.5 27.5 61.5t64.5 27q35 0 63.5 -27t28.5 -61q0 -10 -2 -17 q2 0 6 1t6 1q35 0 64 -26.5t29 -61.5q0 -33 -29 -60.5t-64 -27.5q-37 0 -64.5 26.5t-27.5 61.5v15h-10q-37 0 -64.5 26.5t-27.5 61zM438 1519.5q0 -26.5 21.5 -47t50.5 -20.5t50.5 20.5t21.5 47t-21.5 47t-50.5 20.5t-50.5 -20.5t-21.5 -47zM684 1519.5q0 34.5 27.5 61.5 t64.5 27t64.5 -27t27.5 -61q0 -10 -2 -17q2 0 6.5 1t6.5 1q37 0 64.5 -26.5t27.5 -61.5t-28 -61.5t-64.5 -26.5t-64.5 26.5t-28 61.5v15h-10q-37 0 -64.5 26.5t-27.5 61zM705 1519.5q0 -26.5 21.5 -47t50 -20.5t50 20.5t21.5 47t-21.5 47t-50 20.5t-50 -20.5t-21.5 -47z" />
<glyph unicode="&#x2c6;" horiz-adv-x="692" d="M31 1274l262 260l102 -102l162 -160l102 -103l-100 -98l-102 103l-64 61l-164 -164l-96 100l164 162l-4 6l-166 -165zM59 1274l68 -72l166 166l164 -166l71 70l-235 233z" />
<glyph unicode="&#x2dc;" horiz-adv-x="819" d="M53 1335q94 49 178 49q41 0 125 -24q4 0 9 -2l8 -4q61 -27 110 -27q59 0 133 45l46 -127l-11.5 -6l-11.5 -6q41 12 80 37l45 -127q-88 -51 -178 -51q-92 0 -203 67l41 -24q-39 14 -90 14q-57 0 -131 -45l-47 129q2 0 5 2t5 4q-20 -8 -66 -33zM78 1325l33 -88 q57 35 120 35q55 0 99 -17h-2q63 -41 155 -41q82 0 154 41l-31 88q-57 -37 -123 -36q-47 0 -116 28q-86 29 -136 29q-79 0 -153 -39z" />
<glyph unicode="&#x2000;" horiz-adv-x="1013" />
<glyph unicode="&#x2001;" horiz-adv-x="2029" />
<glyph unicode="&#x2002;" horiz-adv-x="1013" />
<glyph unicode="&#x2003;" horiz-adv-x="2029" />
<glyph unicode="&#x2004;" horiz-adv-x="675" />
<glyph unicode="&#x2005;" horiz-adv-x="505" />
<glyph unicode="&#x2006;" horiz-adv-x="337" />
<glyph unicode="&#x2007;" horiz-adv-x="337" />
<glyph unicode="&#x2008;" horiz-adv-x="251" />
<glyph unicode="&#x2009;" horiz-adv-x="405" />
<glyph unicode="&#x200a;" horiz-adv-x="112" />
<glyph unicode="&#x2010;" d="M72 524v152h755v-103h103v-151h-756v102h-102zM92 545h715v110h-715v-110z" />
<glyph unicode="&#x2011;" d="M72 524v152h755v-103h103v-151h-756v102h-102zM92 545h715v110h-715v-110z" />
<glyph unicode="&#x2012;" d="M72 524v152h755v-103h103v-151h-756v102h-102zM92 545h715v110h-715v-110z" />
<glyph unicode="&#x2013;" d="M72 524v152h755v-103h103v-151h-756v102h-102zM92 545h715v110h-715v-110z" />
<glyph unicode="&#x2014;" horiz-adv-x="1234" d="M74 524v152h983v-103h102v-151h-983v102h-102zM94 545h942v110h-942v-110z" />
<glyph unicode="&#x2018;" horiz-adv-x="387" d="M31 1196l110 238l70 -33l-21 -166l5 -10l49 106l69 -33l-20 -165l61 -134l-147 -67l-57 123l-46 -21zM53 1196l62 -135l110 51l-55 121l18 156l-36 18z" />
<glyph unicode="&#x2019;" horiz-adv-x="409" d="M35 1114l69 148l-16 151l164 12l12 -110l90 8l19 -170l-183 -195l-53 54l70 147l-4 25l-115 -123zM59 1118l29 -28l162 172l-17 143l-122 -10l14 -138z" />
<glyph unicode="&#x201a;" horiz-adv-x="421" d="M35 -111l84 136v151h164v-102h102v-178l-205 -177l-43 68l84 135v23l-143 -123zM59 -111l23 -34l180 153v148h-123v-138z" />
<glyph unicode="&#x201c;" horiz-adv-x="561" d="M41 1255l18 170l144 -12l2 12l164 -12l-13 -94l115 -8l-18 -152l53 -112q2 -2 8 -18.5t6 -18.5l-49 -52l-100 105l-2 -2l-33 33l24 -47q0 -2 6.5 -18.5t8.5 -18.5l-49 -52l-101 105l-2 -2zM61 1262l162 -172l27 28l-66 139l17 138l-123 10zM207 1262l162 -172l26 28 l-65 139l16 138l-123 10z" />
<glyph unicode="&#x201d;" horiz-adv-x="577" d="M47 1114l70 148l-19 151l164 12v-12l146 12l12 -110l90 8l18 -170l-182 -195l-51 54l45 94l-139 -148l-51 54l47 98l-4 4l24 53l-2 19l-117 -125zM72 1118l26 -28l162 172l-16 143l-123 -10l16 -138zM217 1118l27 -28l162 172l-17 143l-123 -10l17 -138z" />
<glyph unicode="&#x201e;" horiz-adv-x="587" d="M47 -109l82 138l-4 151h166v-2h147v-102h103v-178l-203 -179l-41 68l39 68l-146 -131l-40 65l51 88l-6 12l34 62v2l-141 -127zM72 -109l22 -32l176 155v146h-125l5 -137zM219 -111l21 -34l178 155v148h-121v-138z" />
<glyph unicode="&#x2022;" horiz-adv-x="512" d="M45 778q0 63 48 111.5t112 48.5q49 0 91 -32t58 -79q47 -16 80 -59t33 -92q0 -59 -49 -106.5t-111 -47.5q-51 0 -94 32t-59 79q-47 16 -78 58t-31 87zM66 778q0 -51 42 -92t97 -41q53 0 96 41t43 92q0 55 -43 97.5t-96 42.5q-55 0 -97 -42.5t-42 -97.5z" />
<glyph unicode="&#x2026;" horiz-adv-x="1021" d="M72 -20v196h196v-102h92v102h197v-102h92v102h197v-102h102v-197h-196v103h-93v-103h-196v103h-92v-103h-197v103h-102zM92 0h156v156h-156v-156zM381 0h156v156h-156v-156zM670 0h155v156h-155v-156z" />
<glyph unicode="&#x202f;" horiz-adv-x="405" />
<glyph unicode="&#x2039;" horiz-adv-x="808" d="M31 508l534 539l109 -107l-2 -2l104 -100l-428 -432l10 -11q6 -6 9 -10l77 -74l230 -225l-2 -2l104 -100l-106 -111l-103 102l-434 431zM59 508l508 -504l78 82l-428 422l428 432l-80 78z" />
<glyph unicode="&#x203a;" horiz-adv-x="808" d="M31 86l430 422l-150 149l-178 181l-102 102l110 107l101 -105l2 2l532 -538l-534 -533l-103 104v-2zM59 86l80 -82l506 504l-504 510l-82 -78l430 -432z" />
<glyph unicode="&#x205f;" horiz-adv-x="505" />
<glyph unicode="&#x20ac;" horiz-adv-x="1609" d="M43 500v153h195v19h-93v102h-102v154h227q70 225 251 365.5t407 140.5q293 0 534 -256l-4 -4q49 -41 107 -99l-109 -110q-197 211 -426 211q-131 0 -247.5 -68t-192.5 -180h512v-103h102v-153h-706q-2 -4 -2 -10.5t-2 -8.5h608v-102h102v-154h-674q29 -86 93 -170 q139 -111 305 -110q229 0 424 223l96 -109l6 7l111 -123q-242 -256 -535 -256q-158 0 -293 66.5t-231 183.5q-137 111 -211 288h-150v103h-102zM63 520h216q55 -236 234 -387t415 -151q285 0 506 235l-80 90q-184 -211 -426 -211q-178 0 -326.5 121t-202.5 303h682v113h-706 q0 6 -1 12t-1 14q-2 12 -2 35q0 59 8 101h702v112h-675q59 174 202.5 282.5t319.5 108.5q240 0 426 -202l80 82q-221 236 -506 235q-223 0 -399.5 -140t-241.5 -366h-224v-112h201v-4q-6 -80 -6 -97q0 -27 2 -39q0 -4 1 -12t1 -10h-199v-113z" />
<glyph unicode="&#x2122;" horiz-adv-x="960" d="M63 1282v127h443l59 -102h43l8 -15q2 2 10.5 15.5t12.5 21.5q12 18 20 33q4 6 29 47h105v-102h102v-473h-129v102h-102v29h-2l-29 47v-178h-131v102h-84v-102h-133v102h-103v244h-16v102h-103zM84 1303h119v-347h92v347h117v86h-328v-86zM420 956h90v238l61 -107h50 q37 66 63 107v-238h88v433h-72l-21 -34l-20 -32q-31 -51 -61 -109l-104 175h-74v-433z" />
<glyph unicode="&#xe000;" horiz-adv-x="1045" d="M0 1045h1045v-1045h-1045v1045z" />
<glyph unicode="&#xfb01;" horiz-adv-x="808" d="M47 868v154h148l-2 14v27q8 152 103 261.5t222 109.5q59 0 141 -11l-26 -92q39 0 129 -10l-45 -154q-53 12 -96 13q-57 -2 -101.5 -46t-62.5 -112h147v-102h103v-1043h-150v103h-102v786h-9v-889h-147v103h-102v786h-47v102h-103zM68 889h149v-889h107v889h151v-889h109 v1001h-260v39q0 106 56 182t138 81q47 0 82 -9l33 113q-49 6 -115 6q-119 0 -208 -103.5t-97 -246.5v-25q2 -25 2 -37h-147v-112z" />
<glyph unicode="&#xfb02;" horiz-adv-x="819" d="M55 868v154h150l-2 14v27q8 156 101 261.5t224 109.5h131v-103h103v-1454h-156v103h-102v786h-47v-889h-148v103h-102v786h-49v102h-103zM76 889h151v-889h107v889h190v-889h115v1413h-111q-121 -4 -209 -104.5t-96 -245.5v-25q2 -25 2 -37h-149v-112zM334 1001v39 q0 106 55 181t135 82v-302h-190zM467 1022h37v78q-25 -33 -37 -78zM524 1303h4h11l-15 14v-14z" />
<glyph unicode="&#xfb03;" horiz-adv-x="1933" d="M1591 1309q0 37 27 62.5t65 25.5q35 0 64 -27t29 -61q0 -10 -2 -15h12q35 0 63.5 -26.5t28.5 -61.5q0 -33 -28.5 -60.5t-63.5 -27.5q-39 0 -65.5 26.5t-26.5 61.5v15h-11q-39 0 -65.5 26.5t-26.5 61.5zM1608 -20v1064h149v-102h103v-1065h-150v103h-102zM1612 1309 q0 -27 20.5 -47.5t50.5 -20.5q29 0 50.5 20.5t21.5 47t-21.5 47t-50.5 20.5q-31 0 -51 -19t-20 -48zM1628 0h109v1024h-109v-1024zM795 868v154h147l-2 14v27q8 152 103.5 261.5t222.5 109.5q59 0 141 -11l-27 -92q39 0 129 -10l-45 -154q-53 12 -96 13q-57 -2 -101 -46 t-63 -112h150v-102h102v-154h-262v-889h-147v103h-103v786h-47v102h-102zM815 889h150v-889h106v889h262v112h-262v39q0 106 56.5 182t138.5 81q47 0 82 -9l32 113q-49 6 -114 6q-119 0 -208 -103.5t-97 -246.5v-25q2 -25 2 -37h-148v-112zM27 868v154h147l-2 14v27 q8 152 103.5 261.5t222.5 109.5q59 0 141 -11l-27 -92q39 0 129 -10l-45 -154q-53 12 -96 13q-57 -2 -101 -46t-63 -112h150v-102h102v-154h-262v-889h-147v103h-103v786h-47v102h-102zM47 889h150v-889h106v889h262v112h-262v39q0 106 56.5 182t138.5 81q47 0 82 -9l32 113 q-49 6 -114 6q-119 0 -208 -103.5t-97 -246.5v-25q2 -25 2 -37h-148v-112z" />
<glyph unicode="&#xfb04;" horiz-adv-x="1941" d="M1612 -20v1445h151v-102h103v-1446h-152v103h-102zM1632 0h111v1405h-111v-1405zM795 868v154h147l-2 14v27q8 152 103.5 261.5t222.5 109.5q59 0 141 -11l-27 -92q39 0 129 -10l-45 -154q-53 12 -96 13q-57 -2 -101 -46t-63 -112h150v-102h102v-154h-262v-889h-147v103 h-103v786h-47v102h-102zM815 889h150v-889h106v889h262v112h-262v39q0 106 56.5 182t138.5 81q47 0 82 -9l32 113q-49 6 -114 6q-119 0 -208 -103.5t-97 -246.5v-25q2 -25 2 -37h-148v-112zM27 868v154h147l-2 14v27q8 152 103.5 261.5t222.5 109.5q59 0 141 -11l-27 -92 q39 0 129 -10l-45 -154q-53 12 -96 13q-57 -2 -101 -46t-63 -112h150v-102h102v-154h-262v-889h-147v103h-103v786h-47v102h-102zM47 889h150v-889h106v889h262v112h-262v39q0 106 56.5 182t138.5 81q47 0 82 -9l32 113q-49 6 -114 6q-119 0 -208 -103.5t-97 -246.5v-25 q2 -25 2 -37h-148v-112z" />
<glyph horiz-adv-x="526" />
</font>
</defs>
</svg>
