<?xml version="1.0" standalone="no"?>
<!DOCTYPE svg PUBLIC "-//W3C//DTD SVG 1.1//EN" "http://www.w3.org/Graphics/SVG/1.1/DTD/svg11.dtd" >
<svg xmlns="http://www.w3.org/2000/svg">
<metadata>
This is a custom SVG webfont generated by Font Squirrel.
Copyright   : Copyright c 2011 by Roger S Nelsson All rights reserved
Designer    : Roger S Nelsson
Foundry     : Roger S Nelsson
Foundry URL : httpwwwcheapprofontscom
</metadata>
<defs>
<font id="FamiliarProBold" horiz-adv-x="1138" >
<font-face units-per-em="2048" ascent="1638" descent="-410" />
<missing-glyph horiz-adv-x="569" />
<glyph unicode=" "  horiz-adv-x="569" />
<glyph unicode="&#x09;" horiz-adv-x="569" />
<glyph unicode="&#xa0;" horiz-adv-x="569" />
<glyph unicode="!" horiz-adv-x="681" d="M176 139q0 84 33 119t129 35t130 -35t34 -119t-34 -117.5t-130 -33.5t-129 33.5t-33 117.5zM182 1079v389h312v-389l-78 -682h-154z" />
<glyph unicode="&#x22;" horiz-adv-x="970" d="M164 1196v272h237v-272l-41 -272h-155zM569 1196v272h236v-272l-41 -272h-154z" />
<glyph unicode="#" d="M31 391l16 197h193l43 264h-213l16 197h227l66 401h203l-64 -401h205l63 401h207l-65 -401h178l-16 -197h-193l-43 -264h213l-16 -197h-230l-65 -399h-203l65 399h-206l-66 -399h-203l64 399h-176zM442 588h207l43 264h-207z" />
<glyph unicode="$" d="M68 430h266q12 -131 50 -179t130 -58v425q-78 18 -131 36t-111.5 51.5t-92.5 78.5t-56.5 116t-22.5 165q0 186 94.5 288.5t319.5 110.5v121h111v-121q78 -8 123 -16t102 -32.5t89 -64.5t59.5 -113t37.5 -175h-260q-8 100 -39.5 137t-111.5 45v-389q119 -33 187.5 -61.5 t134 -78.5t93 -127t27.5 -188q0 -193 -101.5 -302t-340.5 -128v-194h-111v194q-242 20 -340 125t-106 334zM356 1083q0 -155 158 -196v358q-82 -6 -120 -45t-38 -117zM625 188q92 6 134 51.5t42 137.5q0 100 -44 145.5t-132 63.5v-398z" />
<glyph unicode="%" horiz-adv-x="1820" d="M68 1085q0 184 80.5 282.5t279.5 98.5q186 0 268 -92t82 -287q0 -182 -80 -278t-278 -96q-188 0 -270 91t-82 281zM281 1087q0 -100 30.5 -141t112.5 -41q80 0 110.5 40t30.5 142.5t-30.5 144.5t-110.5 42t-111.5 -41.5t-31.5 -145.5zM420 -43l805 1509h168l-801 -1509 h-172zM1038 338q0 184 80 281.5t279 97.5q186 0 269 -91t83 -286q0 -182 -80 -278.5t-278 -96.5q-190 0 -271.5 91.5t-81.5 281.5zM1251 342q0 -102 31 -143t113 -41q80 0 110.5 40t30.5 142t-30.5 143t-110.5 41q-82 0 -113 -41t-31 -141z" />
<glyph unicode="&#x26;" horiz-adv-x="1478" d="M104 424q0 276 226 362q-80 35 -124 103.5t-44 197.5q0 203 111.5 292t334.5 89h264v-251h-133q-184 0 -234 -29t-50 -123q0 -109 44 -141.5t183 -32.5h287v188h284v-188h164v-252h-164v-639h-632q-285 0 -401 111.5t-116 312.5zM397 442q0 -117 61.5 -153.5t276.5 -36.5 h234v387h-293q-170 0 -224.5 -39t-54.5 -158z" />
<glyph unicode="'" horiz-adv-x="487" d="M125 1196v272h235v-272l-41 -272h-153z" />
<glyph unicode="(" horiz-adv-x="681" d="M82 539q0 268 93 490t253 439h205q-129 -238 -193.5 -444.5t-64.5 -482.5q0 -270 61.5 -472t194.5 -466h-205q-162 227 -253 448t-91 488z" />
<glyph unicode=")" horiz-adv-x="681" d="M47 -397q129 236 193.5 441.5t64.5 485.5q0 522 -256 938h205q162 -225 253 -448t91 -488q0 -268 -92 -489t-254 -440h-205z" />
<glyph unicode="*" horiz-adv-x="796" d="M47 1153l51 158l217 -86l-8 252h176l-10 -252l223 84l52 -162l-232 -60l154 -198l-138 -94l-137 198l-141 -200l-135 98l155 196z" />
<glyph unicode="+" horiz-adv-x="1196" d="M82 467v240h395v395h240v-395h395v-240h-395v-395h-240v395h-395z" />
<glyph unicode="," horiz-adv-x="569" d="M121 139q0 86 33.5 120t132 34t129 -39t30.5 -160q0 -242 -63.5 -326.5t-222.5 -84.5v133q68 0 91.5 33t31.5 139q-96 0 -129 33.5t-33 117.5z" />
<glyph unicode="-" horiz-adv-x="681" d="M57 422v272h566v-272h-566z" />
<glyph unicode="." horiz-adv-x="569" d="M121 139q0 84 32.5 119t129 35t130 -35t33.5 -119t-33.5 -117.5t-130 -33.5t-129 33.5t-32.5 117.5z" />
<glyph unicode="/" horiz-adv-x="569" d="M-43 -66l426 1534h229l-430 -1534h-225z" />
<glyph unicode="0" d="M74 711q0 403 105.5 576t388 173t389 -174t106.5 -573q0 -397 -105.5 -571.5t-390 -174.5t-389 173t-104.5 571zM367 713q0 -219 19.5 -328t59 -146.5t121.5 -37.5t123 37.5t60.5 147.5t19.5 327t-19.5 327.5t-60.5 148.5t-123 38t-121.5 -38t-59 -147.5t-19.5 -328.5z " />
<glyph unicode="1" d="M233 0v252h246v848l-246 -80v219l299 221h232v-1208h246v-252h-777z" />
<glyph unicode="2" d="M53 0q0 127 33 230.5t95.5 180t124 128t151.5 108.5q203 129 248 179.5t45 162.5q0 133 -42 185.5t-155 52.5q-111 0 -149.5 -53.5t-43.5 -200.5h-284q6 260 116.5 373.5t364.5 113.5t369.5 -109.5t115.5 -346.5q0 -86 -17 -152t-39.5 -109t-79 -91t-100.5 -76l-138 -82 q-127 -74 -172 -119t-80 -123h626v-252h-989z" />
<glyph unicode="3" d="M63 426h285q6 -121 43 -173t160 -52q115 0 163 51t48 178q0 119 -49 165t-187 46h-77v229h79q100 0 144.5 38t44.5 149q0 92 -38 131t-140 39q-109 0 -145 -45t-44 -160h-264q10 219 111.5 328.5t351.5 109.5q461 0 461 -387q0 -236 -193 -295q238 -53 238 -358 q0 -453 -508 -453q-233 0 -353.5 104.5t-130.5 354.5z" />
<glyph unicode="4" d="M49 313v246q229 492 569 899h302v-915h163v-230h-163v-313h-287v313h-584zM279 543h354l4 575q-213 -282 -358 -575z" />
<glyph unicode="5" d="M68 385h284q10 -100 58.5 -142t150.5 -42q113 0 162 58t49 212q0 147 -49 201.5t-174 54.5q-80 0 -123 -25.5t-76 -85.5l-237 37l110 781h781v-252h-572l-45 -269q72 47 221 48q236 0 346.5 -116t110.5 -368q0 -250 -119 -380t-401 -130q-227 0 -345 96.5t-132 321.5z " />
<glyph unicode="6" d="M72 745q0 74 3 132.5t15 136.5t33.5 136t62.5 119.5t96.5 100.5t140.5 64.5t189 25.5q201 0 300 -90t126 -278h-280q-10 135 -164 135q-72 0 -118 -25.5t-70.5 -80t-34 -116t-15.5 -159.5q82 96 271 96q233 0 336.5 -121t103.5 -354q0 -258 -122 -379t-370 -121 q-281 0 -392 172t-111 606zM369 459q0 -145 51 -201.5t166 -56.5q43 0 72.5 8t60.5 33.5t47 82t16 144.5q0 137 -46 188.5t-154 51.5q-113 0 -163 -55.5t-50 -194.5z" />
<glyph unicode="7" d="M68 1434h1003v-215q-76 -78 -154.5 -192t-161.5 -270.5t-138.5 -356t-63.5 -400.5h-287q8 190 62.5 382.5t135.5 346.5t152.5 263.5t141.5 189.5h-690v252z" />
<glyph unicode="8" d="M291 778q-94 41 -134 110.5t-40 186.5q0 197 108.5 291t343.5 94q244 0 346.5 -98t102.5 -293q0 -115 -37 -178.5t-133 -106.5q219 -86 219 -362q0 -457 -504 -457q-491 0 -491 434q0 309 219 379zM365 426q0 -125 47 -176t155 -51q111 0 159 52t48 171q0 117 -47 171 t-162 54q-111 0 -155.5 -52t-44.5 -169zM387 1059q0 -94 45 -136t139 -42q90 0 133.5 40t43.5 136q0 92 -42 131t-137 39q-100 0 -141 -42t-41 -126z" />
<glyph unicode="9" d="M63 956q0 504 476 504q129 0 223 -38t150.5 -99t91 -156.5t46 -195t11.5 -228.5q0 -410 -124 -593t-405 -183q-215 0 -317.5 97.5t-122.5 271.5h279q12 -70 52 -102.5t124 -32.5q111 0 169 78.5t60 302.5q-74 -98 -291 -99q-422 0 -422 473zM356 969q0 -145 45 -198.5 t158 -53.5q106 0 152.5 50.5t46.5 193.5q0 147 -49.5 206.5t-153.5 59.5q-115 0 -157 -62.5t-42 -195.5z" />
<glyph unicode=":" horiz-adv-x="681" d="M178 139q0 84 33 119t129 35t130 -35t34 -119t-34 -117.5t-130 -33.5t-129 33.5t-33 117.5zM178 899q0 84 33 119t129 35t130 -35t34 -119t-34 -117.5t-130 -33.5t-129 33.5t-33 117.5z" />
<glyph unicode=";" horiz-adv-x="681" d="M178 139q0 86 34 120t132 34t129 -39t31 -160q0 -242 -63.5 -326.5t-223.5 -84.5v133q68 0 91.5 33t31.5 139q-96 0 -129 33.5t-33 117.5zM178 899q0 84 33 119t129 35t130 -35t34 -119t-34 -117.5t-130 -33.5t-129 33.5t-33 117.5z" />
<glyph unicode="&#x3c;" horiz-adv-x="1196" d="M82 483v205l1030 440v-241l-729 -301l729 -299v-242z" />
<glyph unicode="=" horiz-adv-x="1196" d="M82 244v239h1030v-239h-1030zM82 692v240h1030v-240h-1030z" />
<glyph unicode="&#x3e;" horiz-adv-x="1196" d="M82 45v242l729 301l-729 299v241l1030 -440v-203z" />
<glyph unicode="?" horiz-adv-x="1251" d="M115 1024q2 262 128 361.5t382 99.5q254 0 386 -94.5t132 -335.5q0 -86 -15.5 -146.5t-57.5 -105.5t-77 -69.5t-108 -65.5q-82 -47 -104.5 -92.5t-22.5 -165.5h-264q0 143 21.5 220t57 112.5t127.5 93.5q59 37 84 57t45.5 63t20.5 107q0 104 -49 146t-168 42 q-129 0 -174.5 -48t-59.5 -179h-284zM471 139q0 84 33 119t129 35t130 -35t34 -119t-34 -117.5t-130 -33.5t-129 33.5t-33 117.5z" />
<glyph unicode="@" horiz-adv-x="1996" d="M178 543q0 391 220 623.5t646 232.5q367 0 567.5 -176t200.5 -498q0 -297 -159.5 -470t-390.5 -173q-74 0 -112 23.5t-46 87.5q-51 -55 -105.5 -83t-138.5 -28q-154 0 -247 96t-93 295q0 236 129 391.5t350 155.5q84 0 141.5 -29.5t104.5 -105.5l27 110h209l-129 -585 q-14 -72 -15 -86q0 -27 10.5 -36t34.5 -9q109 0 181.5 111.5t72.5 311.5q0 526 -587 527q-682 0 -682 -682q0 -322 162.5 -485.5t535.5 -163.5q255 0 405 102l115 -121q-196 -151 -514 -151h-4q-188 0 -344 44t-281 136t-194.5 254t-69.5 381zM754 485q0 -206 162 -206h2 q127 0 197.5 101t70.5 243q0 202 -168 202h-2q-125 0 -193.5 -96.5t-68.5 -243.5z" />
<glyph unicode="A" horiz-adv-x="1478" d="M27 0q233 780 540 1468h340q324 -718 543 -1468h-332q-27 102 -88 311h-596l-86 -311h-321zM514 563h436q-100 300 -217 570q-117 -262 -219 -570z" />
<glyph unicode="B" horiz-adv-x="1478" d="M154 0v1468h716q223 0 335 -89t112 -292q0 -80 -15.5 -137t-46 -90t-52 -46t-54.5 -28q225 -86 225 -362q0 -201 -115.5 -312.5t-400.5 -111.5h-704zM457 891h340q139 0 183 31.5t44 142.5q0 66 -18.5 95.5t-77 43t-189.5 13.5h-282v-326zM457 252h272q213 0 275.5 32.5 t62.5 155.5q0 129 -53.5 164t-225.5 35h-331v-387z" />
<glyph unicode="C" horiz-adv-x="1478" d="M92 727q0 397 163 585.5t505 188.5q559 0 631 -489h-304q-31 119 -94 175t-233 56q-190 0 -275.5 -126t-85.5 -417q0 -242 81 -358.5t284 -116.5q156 0 230.5 57.5t92.5 200.5h304q-37 -516 -633 -516q-338 0 -502 180.5t-164 579.5z" />
<glyph unicode="D" horiz-adv-x="1478" d="M154 0v1468h612q346 0 487.5 -164.5t141.5 -562.5q0 -385 -147.5 -563t-483.5 -178h-610zM457 252h268q217 0 289.5 101.5t72.5 385.5q0 109 -4 175.5t-20 125t-41 89t-71 52t-106.5 29t-152.5 7.5h-235v-965z" />
<glyph unicode="E" horiz-adv-x="1366" d="M154 0v1468h1083v-251h-780v-322h721v-252h-721v-391h813v-252h-1116z" />
<glyph unicode="F" horiz-adv-x="1251" d="M154 0v1468h1032v-251h-729v-345h637v-251h-637v-621h-303z" />
<glyph unicode="G" horiz-adv-x="1593" d="M88 735q0 193 45 335t113.5 223t169 129t192.5 63.5t203 15.5q625 0 666 -489h-303q-14 115 -93.5 173t-261.5 58q-221 0 -322.5 -109.5t-101.5 -400.5q0 -156 28 -258t85 -155.5t128 -74t177 -20.5q219 0 301 72t82 240h-340v251h643v-172q0 -348 -177 -498.5 t-511 -150.5q-119 0 -216 18.5t-194.5 71t-164 135t-107.5 222t-41 321.5z" />
<glyph unicode="H" horiz-adv-x="1478" d="M147 0v1468h304v-565h575v565h303v-1468h-303v651h-575v-651h-304z" />
<glyph unicode="I" horiz-adv-x="569" d="M133 0v1468h303v-1468h-303z" />
<glyph unicode="J" d="M33 520h303q2 -178 36 -238.5t138 -60.5q98 0 135 50.5t37 185.5v1011h303v-1044q0 -248 -111.5 -351.5t-359.5 -103.5q-147 0 -239.5 28t-146.5 97.5t-73.5 167.5t-21.5 258z" />
<glyph unicode="K" horiz-adv-x="1478" d="M168 0v1468h303v-616l576 616h397l-584 -591l617 -877h-392l-436 659l-178 -182v-477h-303z" />
<glyph unicode="L" horiz-adv-x="1251" d="M154 0v1468h303v-1210h733v-258h-1036z" />
<glyph unicode="M" horiz-adv-x="1705" d="M141 0v1468h447l270 -792l260 792h445v-1468h-303v1079l-261 -766h-294l-261 766v-1079h-303z" />
<glyph unicode="N" horiz-adv-x="1478" d="M147 0v1468h310l571 -968v968h303v-1468h-303l-577 975v-975h-304z" />
<glyph unicode="O" horiz-adv-x="1593" d="M88 735q0 193 43 335t108.5 223t163 129t187.5 63.5t203 15.5q117 0 210 -16.5t190 -65.5t162.5 -131t107.5 -223t42 -330q0 -186 -40 -326.5t-104.5 -222.5t-159.5 -133t-190.5 -68.5t-211.5 -17.5q-121 0 -219.5 18.5t-192.5 71t-157.5 136t-102.5 221t-39 321.5z M395 727q0 -158 24.5 -258t80 -153.5t126 -72t183.5 -18.5q72 0 121 8.5t103 38t88 83t55.5 151.5t21.5 237q0 279 -93 389.5t-314 110.5q-213 0 -304.5 -110.5t-91.5 -405.5z" />
<glyph unicode="P" horiz-adv-x="1366" d="M154 0v1468h555q90 0 149.5 -4t132 -18t119.5 -46t89 -81t61.5 -128t19.5 -183q0 -150 -41 -248t-122 -144.5t-167 -62.5t-209 -16h-284v-537h-303zM457 788h190q193 0 259.5 42t66.5 190q0 123 -57 160t-250 37h-209v-429z" />
<glyph unicode="Q" horiz-adv-x="1593" d="M88 735q0 193 43 335t108.5 223t163 129t187.5 63.5t203 15.5q117 0 210 -16.5t190 -65.5t162.5 -131t107.5 -223t42 -330q0 -207 -47 -355.5t-133 -231t-185.5 -123.5t-226.5 -52v-229h-235v229q-129 12 -229.5 53.5t-185.5 126.5t-130 231t-45 351zM395 727 q0 -256 66.5 -364.5t216.5 -131.5v195h235v-195q137 18 211 129t74 383q0 279 -93 389.5t-314 110.5q-213 0 -304.5 -110.5t-91.5 -405.5z" />
<glyph unicode="R" horiz-adv-x="1478" d="M154 0v1468h637q82 0 129 -2t116.5 -10t108.5 -24.5t86 -48t71.5 -79t42 -117t17.5 -159.5q0 -203 -75 -301t-212 -131l383 -596h-368l-361 578h-272v-578h-303zM457 829h272q193 0 259.5 38t66.5 171q0 111 -57 145t-250 34h-291v-388z" />
<glyph unicode="S" horiz-adv-x="1366" d="M82 461h303q6 -68 16.5 -103.5t42 -70.5t96 -48.5t171.5 -13.5q133 0 199.5 35t66.5 137q0 70 -38 109t-132 65l-356 97q-158 41 -247 129t-89 272q0 432 551 432q563 0 573 -463h-303q-6 59 -13.5 86t-34 61t-83.5 46t-152 12q-123 0 -177 -30.5t-54 -114.5 q0 -74 37 -107t112 -53l328 -88q90 -25 150.5 -51.5t119 -73.5t87 -123t28.5 -182q0 -453 -573 -453q-340 0 -477.5 123t-151.5 371z" />
<glyph unicode="T" horiz-adv-x="1251" d="M33 1210v258h1186v-258h-441v-1210h-303v1210h-442z" />
<glyph unicode="U" horiz-adv-x="1478" d="M150 502v966h303v-774q0 -106 2 -165.5t12 -120t27.5 -89t51.5 -54t81 -33t116 -7.5q184 0 233.5 84t49.5 373v786h303v-970q0 -166 -40 -273.5t-121 -162t-177 -75t-237 -20.5q-147 0 -250 21.5t-188 78t-125.5 164t-40.5 271.5z" />
<glyph unicode="V" horiz-adv-x="1366" d="M25 1468h327q121 -506 336 -1103q195 545 334 1103h317q-199 -720 -508 -1468h-303q-301 719 -503 1468z" />
<glyph unicode="W" horiz-adv-x="1933" d="M23 1468h319q83 -525 233 -1050l226 1050h334l233 -1056q160 543 236 1056h307q-137 -713 -393 -1468h-322l-229 1067l-232 -1067h-319q-256 756 -393 1468z" />
<glyph unicode="X" horiz-adv-x="1366" d="M18 0l484 756l-451 712h361l272 -473l274 473h353l-453 -708l488 -760h-369l-295 502l-307 -502h-357z" />
<glyph unicode="Y" horiz-adv-x="1366" d="M18 1468h357q111 -293 319 -618q190 301 307 618h347q-221 -483 -508 -897v-571h-303v575q-287 399 -519 893z" />
<glyph unicode="Z" horiz-adv-x="1251" d="M43 0v248l764 969h-721v251h1106v-237l-780 -973h794v-258h-1163z" />
<glyph unicode="[" horiz-adv-x="681" d="M133 -397v1865h502v-204h-246v-1454h246v-207h-502z" />
<glyph unicode="\" horiz-adv-x="569" d="M-43 1468h227l428 -1534h-227z" />
<glyph unicode="]" horiz-adv-x="681" d="M45 -190h246v1454h-246v204h502v-1865h-502v207z" />
<glyph unicode="^" horiz-adv-x="1196" d="M121 664l373 778h211l368 -778h-246l-229 520l-231 -520h-246z" />
<glyph unicode="_" horiz-adv-x="1099" d="M-4 -154h1108v-102h-1108v102z" />
<glyph unicode="`" horiz-adv-x="681" d="M-16 1520h313l174 -299h-197z" />
<glyph unicode="a" d="M66 272q0 166 88 250t225 105l356 55v66q0 74 -41 101.5t-143 27.5t-138 -26.5t-46 -98.5h-269q10 201 122 277.5t343 76.5q233 0 345 -71.5t112 -243.5v-791h-272v82q-104 -109 -332 -109q-186 0 -268 77t-82 222zM350 311q0 -63 38 -95t130 -32q123 0 170 58.5 t47 169.5v86l-198 -33q-96 -14 -141.5 -45t-45.5 -109z" />
<glyph unicode="b" horiz-adv-x="1251" d="M129 0v1468h285v-483q96 121 317 121q238 0 343.5 -135t105.5 -418q0 -301 -112 -439.5t-341 -140.5q-117 0 -196.5 27t-127.5 102v-102h-274zM406 543q0 -203 56 -269.5t183 -66.5q133 0 187.5 68.5t54.5 271.5q0 178 -51.5 251.5t-194.5 73.5q-127 0 -181 -69.5 t-54 -259.5z" />
<glyph unicode="c" d="M76 528q0 283 113.5 430.5t412.5 147.5q229 0 339.5 -94t133.5 -297h-2h-282q-18 86 -59.5 121.5t-143.5 35.5q-121 0 -170 -66.5t-49 -266.5q0 -199 47 -265.5t157.5 -66.5t160.5 45t57 131h284q-18 -199 -126.5 -304.5t-360.5 -105.5q-156 0 -260.5 41t-157.5 121 t-73.5 172t-20.5 221z" />
<glyph unicode="d" horiz-adv-x="1251" d="M74 543q0 301 114.5 432t335.5 131q223 0 316 -121v483h284v-1468h-274v102q-49 -76 -126 -102.5t-196 -26.5q-242 2 -348 147.5t-106 422.5zM367 547q0 -203 55 -271.5t186 -68.5q129 0 184.5 66.5t55.5 267.5q0 193 -53.5 262t-180.5 69q-143 0 -195 -73.5t-52 -251.5z " />
<glyph unicode="e" d="M53 551q0 100 12.5 177t46 150.5t91 122t153 77t226.5 28.5q281 0 386 -143.5t105 -501.5h-727q8 -152 54 -203t167 -51q86 0 134.5 21.5t68.5 80.5h291q-25 -180 -144.5 -258t-347.5 -78q-131 0 -222 26t-159.5 89.5t-101.5 178t-33 284.5zM348 641h440q-8 139 -60 185 t-161 46q-123 0 -167 -49t-52 -182z" />
<glyph unicode="f" horiz-adv-x="681" d="M20 850v229h158v109q0 154 67.5 226.5t250.5 72.5l168 -12v-222q-70 4 -99 4q-37 0 -58.5 -7t-30.5 -27.5t-11 -38t-2 -54.5v-51h194v-229h-194v-850h-285v850h-158z" />
<glyph unicode="g" horiz-adv-x="1251" d="M80 551q0 289 111.5 422t334.5 133q246 0 330 -143v116h270v-1005q0 -76 -3 -123t-14 -107.5t-31.5 -97.5t-59.5 -76t-94.5 -60.5t-136 -34.5t-187.5 -13q-238 0 -362.5 73.5t-128.5 251.5h315q4 -27 11 -42t26.5 -34.5t60.5 -28.5t105 -9q133 0 174 52t41 193v101 q-88 -121 -297 -121q-236 0 -350.5 130t-114.5 423zM373 547q0 -176 48 -246t179 -70q137 0 190.5 75t53.5 251q0 174 -53.5 244.5t-192.5 70.5q-123 0 -174 -67.5t-51 -257.5z" />
<glyph unicode="h" horiz-adv-x="1251" d="M135 0v1468h285v-487q80 125 307 125q231 0 309 -112.5t78 -385.5v-608h-285v557q0 92 -2 130t-10 85t-27.5 62.5t-53.5 26.5t-89 11q-137 0 -182 -60t-45 -220v-592h-285z" />
<glyph unicode="i" horiz-adv-x="569" d="M121 1343.5q0 83.5 32.5 118.5t129 35t130 -35t33.5 -118.5t-33.5 -117.5t-130 -34t-129 34t-32.5 117.5zM141 0v1079h285v-1079h-285z" />
<glyph unicode="j" horiz-adv-x="569" d="M-10 -193q35 -2 53 -2q49 0 72.5 29t23.5 113v1132h285v-1032q0 -295 -58.5 -388t-254.5 -93q-39 0 -70 2t-41 5l-10 3v231zM119 1343.5q0 83.5 32.5 118.5t129 35t130 -35t33.5 -118.5t-33.5 -117.5t-130 -34t-129 34t-32.5 117.5z" />
<glyph unicode="k" d="M139 0v1468h285v-788l350 399h350l-376 -409l391 -670h-330l-262 469l-123 -127v-342h-285z" />
<glyph unicode="l" horiz-adv-x="569" d="M141 0v1468h285v-1468h-285z" />
<glyph unicode="m" horiz-adv-x="1820" d="M129 0v1079h270v-114q98 141 324 141q123 0 187.5 -35t109.5 -117q31 45 60.5 73t98 53.5t164.5 25.5q199 0 274 -95.5t75 -283.5v-727h-285v641q0 133 -33 182t-129 49q-127 0 -159.5 -74.5t-32.5 -281.5v-516h-285v629q0 68 -1 96.5t-9 65t-25.5 49t-48.5 22.5t-80 10 q-127 0 -158.5 -66.5t-31.5 -281.5v-524h-285z" />
<glyph unicode="n" horiz-adv-x="1251" d="M135 0v1079h271v-139q63 86 142 126t218 40q203 0 275.5 -97.5t72.5 -349.5v-659h-285v621q0 51 -1 76.5t-6 61.5t-16 51t-31.5 32.5t-52.5 23.5t-77 6q-143 0 -184 -76.5t-41 -283.5v-512h-285z" />
<glyph unicode="o" horiz-adv-x="1251" d="M72 540.5q0 567.5 553 567.5q555 0 555 -567.5t-557 -567.5q-551 0 -551 567.5zM365 541q0 -186 58 -260t204 -74q143 0 201.5 74t58.5 262q0 182 -58.5 256.5t-203.5 74.5q-143 0 -201.5 -74.5t-58.5 -258.5z" />
<glyph unicode="p" horiz-adv-x="1251" d="M131 -416v1495h270v-116q55 80 133 111.5t197 31.5q231 0 340 -126t109 -445q0 -289 -100.5 -425.5t-348.5 -136.5q-229 0 -315 119v-508h-285zM406 547q0 -186 54 -263t193 -77q137 0 185.5 73.5t48.5 254.5q0 188 -51.5 262.5t-190.5 74.5q-133 0 -186 -71.5 t-53 -253.5z" />
<glyph unicode="q" horiz-adv-x="1251" d="M74 524q0 309 104.5 445.5t347.5 136.5q123 0 199 -35t131 -110v118h268v-1495h-284v504q-74 -115 -301 -115q-258 0 -361.5 128t-103.5 423zM367 530q0 -188 50 -255.5t185 -67.5q133 0 188.5 69t55.5 259q0 201 -58.5 269t-189.5 68q-125 0 -178 -67.5t-53 -274.5z" />
<glyph unicode="r" horiz-adv-x="796" d="M133 0v1079h268v-135q49 86 111.5 122t167.5 36l74 -6v-273q-33 6 -90 6q-66 0 -112 -22.5t-71.5 -57t-40 -94t-18.5 -116t-4 -140.5v-399h-285z" />
<glyph unicode="s" d="M66 332h284q8 -86 58.5 -117t169.5 -31q111 0 155.5 23.5t44.5 81.5q0 45 -26.5 67.5t-100.5 42.5l-299 72q-129 31 -191.5 96.5t-62.5 200.5q0 168 112 253t361 85q215 0 332 -74t127 -260h-285q-10 74 -45.5 98.5t-132.5 24.5q-106 0 -145 -23.5t-39 -72.5 q0 -39 25.5 -61.5t93.5 -39.5l266 -63q154 -37 224.5 -105.5t70.5 -199.5q0 -356 -488 -357q-493 1 -509 359z" />
<glyph unicode="t" horiz-adv-x="681" d="M23 850v229h141v267h285v-267h184v-229h-184v-463q0 -121 16 -150.5t98 -29.5l70 4v-211q-98 -16 -203 -16q-45 0 -80 5t-61.5 11t-46.5 23l-32 30q-13 12 -22.5 44t-14.5 52.5t-7 66.5t-2 76v91v467h-141z" />
<glyph unicode="u" horiz-adv-x="1251" d="M137 379v700h285v-682q0 -109 40 -149.5t148 -40.5q117 0 167 52t50 198v622h285v-1079h-268v115q-88 -141 -334 -142q-201 0 -287 89.5t-86 316.5z" />
<glyph unicode="v" d="M23 1079h311q86 -416 237 -776q154 375 244 776h299q-156 -547 -403 -1079h-285q-248 532 -403 1079z" />
<glyph unicode="w" horiz-adv-x="1593" d="M14 1079h295q49 -375 178 -753l168 753h283l172 -753q131 375 180 753h289q-125 -582 -324 -1079h-305l-157 694l-154 -694h-307q-205 532 -318 1079z" />
<glyph unicode="x" d="M25 0l374 551l-360 528h348l184 -309l187 309h336l-361 -524l379 -555h-350l-199 328l-198 -328h-340z" />
<glyph unicode="y" d="M18 1079h314q80 -393 239 -786l236 786h299l-385 -1079q-43 -121 -66.5 -179.5t-58.5 -118.5t-73 -84t-92 -38t-134 -14l-143 8v223q27 -4 47 -4q96 0 146 32t75 146q-246 539 -404 1108z" />
<glyph unicode="z" horiz-adv-x="1024" d="M39 0v215l553 635h-514v229h880v-221l-550 -625h575v-233h-944z" />
<glyph unicode="{" horiz-adv-x="796" d="M86 436v201q82 0 143.5 31.5t61.5 101.5v424q0 160 92 217t289 57h76v-200q-133 0 -170 -28t-37 -112v-370q0 -109 -41 -151t-142 -70q100 -29 141.5 -71t41.5 -151v-372q0 -84 36.5 -112t170.5 -28v-200h-76q-197 0 -289 57t-92 217v426q0 70 -61.5 101.5t-143.5 31.5z " />
<glyph unicode="|" horiz-adv-x="573" d="M172 -397v1865h227v-1865h-227z" />
<glyph unicode="}" horiz-adv-x="796" d="M49 -197q133 0 170 28t37 112v372q0 109 41 151t141 71q-100 29 -141 70.5t-41 150.5v370q0 84 -37 112t-170 28v200h76q197 0 289 -57t92 -217v-424q0 -70 61.5 -101.5t143.5 -31.5v-201q-82 0 -143.5 -31.5t-61.5 -101.5v-426q0 -160 -92 -217t-289 -57h-76v200z" />
<glyph unicode="~" horiz-adv-x="1196" d="M111 410q0 338 286 338q98 0 210 -52.5t177 -52.5q61 0 84 25.5t37 87.5h178q0 -178 -63.5 -254t-202.5 -76q-106 0 -231 51t-180 51q-63 0 -90 -30.5t-35 -87.5h-170z" />
<glyph unicode="&#xa1;" horiz-adv-x="681" d="M180 940q0 84 34 118t130 34t129 -34t33 -118t-33 -119t-129 -35t-130 35t-34 119zM188 0l78 682h154l80 -682v-389h-312v389z" />
<glyph unicode="&#xa2;" d="M76 526q0 268 101.5 416t361.5 162v199h110v-199q205 -8 304 -101t122 -288h-282q-10 80 -40 113.5t-104 41.5v-661q76 12 106.5 54t37.5 120h284q-18 -188 -113.5 -290.5t-314.5 -117.5v-198h-110v198q-139 6 -233.5 50.5t-142.5 122t-67.5 166.5t-19.5 212zM369 543 q0 -166 33.5 -244t136.5 -90v661q-104 -18 -137 -94.5t-33 -232.5z" />
<glyph unicode="&#xa3;" d="M43 0v258h133v385h-133v158h133v323q0 176 97.5 264.5t320.5 88.5q211 0 309 -85t107 -278h-267q-4 82 -37.5 114t-117.5 32q-82 0 -113 -26t-31 -81v-352h324v-158h-324v-385h627v-258h-1028z" />
<glyph unicode="&#xa4;" d="M66 389l124 123q-28 81 -28 203v8q0 129 31 213l-127 127l170 170l114 -117q92 43 223 43q129 0 222 -41l114 115l168 -170l-127 -127q29 -80 29 -209q0 -125 -29 -209l129 -129l-170 -170l-116 117q-88 -41 -224 -41q-137 0 -221 39l-112 -113zM408 725 q0 -117 34.5 -164t128.5 -47q92 0 128 46t36 165t-35.5 166t-130.5 47q-92 0 -126.5 -47t-34.5 -166z" />
<glyph unicode="&#xa5;" d="M-37 1362h338q96 -256 289 -553q166 260 276 553h328q-147 -319 -344 -631h217v-229h-340v-101h340v-229h-340v-172h-287v172h-350v229h350v101h-350v229h223q-203 313 -350 631z" />
<glyph unicode="&#xa6;" horiz-adv-x="573" d="M174 360h227v-757h-227v757zM174 711v757h227v-757h-227z" />
<glyph unicode="&#xa7;" d="M66 616q0 100 46 165t142 122q-37 41 -54.5 64.5t-33.5 74t-16 111.5q0 336 419 336q207 0 306.5 -85t107.5 -278h-266q-4 82 -38 114t-118 32q-80 0 -111.5 -25.5t-31.5 -79.5q0 -49 29.5 -76.5t132.5 -84.5l305 -170q182 -96 182 -304q0 -90 -53 -171.5t-135 -120.5 q66 -55 95.5 -112.5t29.5 -145.5q0 -190 -108 -282.5t-331 -92.5q-229 0 -327.5 98t-112.5 277h270q10 -90 48 -125t139 -35q143 0 143 135q0 43 -24.5 70.5t-88.5 66.5l-407 244q-139 84 -139 278zM313 670q1 -87 107 -150l311 -180q88 61 88 139q0 43 -32.5 76t-96.5 72 l-289 168q-37 -12 -62.5 -51t-25.5 -74z" />
<glyph unicode="&#xa8;" horiz-adv-x="681" d="M-12 1362q0 76 29.5 107.5t115.5 31.5t117 -31.5t31 -107.5t-30 -106.5t-118 -30.5q-86 0 -115.5 30.5t-29.5 106.5zM399 1362q0 76 30 107.5t116 31.5t116.5 -31.5t30.5 -107.5t-29.5 -106.5t-117.5 -30.5q-86 0 -116 30.5t-30 106.5z" />
<glyph unicode="&#xa9;" horiz-adv-x="1509" d="M-18 731q0 383 204.5 576.5t569.5 193.5q362 0 567 -193.5t205 -576.5q0 -381 -205 -575.5t-567.5 -194.5t-568 193.5t-205.5 576.5zM181 730q0 -601 571 -601h4q281 0 427 150.5t146 453.5q0 301 -147 450.5t-428 149.5q-574 0 -573 -603zM367 733q0 223 96 332t313 109 q164 0 249 -69t112 -222h-191q-18 74 -59 99.5t-127 25.5q-109 0 -152 -60.5t-43 -208.5q0 -156 43 -216t150 -60q180 0 188 135h191q-27 -168 -120 -234.5t-239 -66.5q-205 0 -308 105.5t-103 330.5z" />
<glyph unicode="&#xaa;" horiz-adv-x="757" d="M39 999q0 92 47 141.5t170 67.5l225 35v27q0 47 -23.5 65.5t-82.5 18.5q-125 0 -125 -72h-182q16 131 82.5 175t220.5 44q166 0 232.5 -43t66.5 -155v-492h-178v76q-58 -92 -228 -92q-117 0 -171 49t-54 155zM238 1006q0 -47 23.5 -62.5t74.5 -15.5q82 0 113.5 31.5 t31.5 107.5v55l-125 -22q-68 -12 -93 -30.5t-25 -63.5z" />
<glyph unicode="&#xab;" d="M143 477v164l328 326l135 -136l-274 -272l274 -272l-135 -135zM573 477v164l328 326l135 -136l-274 -272l274 -272l-135 -135z" />
<glyph unicode="&#xac;" horiz-adv-x="1196" d="M82 692v240h1030v-660h-238v420h-792z" />
<glyph unicode="&#xad;" horiz-adv-x="681" d="M57 422v272h566v-272h-566z" />
<glyph unicode="&#xae;" horiz-adv-x="1509" d="M-18 731q0 383 204.5 576.5t569.5 193.5q362 0 567 -193.5t205 -576.5q0 -381 -205 -575.5t-567.5 -194.5t-568 193.5t-205.5 576.5zM180 730q0 -601 572 -601h4q281 0 427 150.5t146 451.5t-146 451.5t-427 150.5q-576 0 -576 -603zM434 317v826h332q174 0 242.5 -59.5 t68.5 -182.5q0 -104 -38 -158.5t-132 -72.5l207 -353h-194l-181 334h-133v-334h-172zM606 799h133q98 0 131 18.5t33 91.5q0 57 -37 77t-112 20h-148v-207z" />
<glyph unicode="&#xaf;" horiz-adv-x="681" d="M0 1241v162h682v-162h-682z" />
<glyph unicode="&#xb0;" horiz-adv-x="819" d="M109 1161q0 154 73.5 227.5t227.5 73.5q301 0 301 -301t-301 -301t-301 301zM240 1161q0 -88 39.5 -129t130 -41t130.5 41t40 129t-40 129t-130.5 41t-130 -41t-39.5 -129z" />
<glyph unicode="&#xb1;" horiz-adv-x="1196" d="M82 0v240h1030v-240h-1030zM82 715v239h395v396h240v-396h395v-239h-395v-396h-240v396h-395z" />
<glyph unicode="&#xb2;" horiz-adv-x="681" d="M20 637q6 102 24.5 150.5t75 100.5t195.5 140q72 43 108 85t36 104q0 96 -119 96q-41 0 -66.5 -9.5t-37 -30t-15.5 -40t-4 -51.5h-184q2 154 78.5 220t236.5 66q162 0 232.5 -65.5t70.5 -200.5q0 -86 -33.5 -142t-132.5 -116q-119 -72 -148.5 -95.5t-43.5 -49.5h358v-162 h-631z" />
<glyph unicode="&#xb3;" horiz-adv-x="681" d="M23 883h182q2 -61 27.5 -91t99.5 -30q66 0 95.5 28.5t29.5 96.5q0 61 -30 84.5t-114 23.5h-49v133h37q66 0 97.5 19.5t31.5 81.5q0 45 -22.5 66.5t-79.5 21.5q-68 0 -91.5 -27.5t-23.5 -81.5h-176q4 139 70.5 199.5t222.5 60.5q152 0 222.5 -55t70.5 -172 q0 -68 -25 -103.5t-82 -62.5q72 -23 105.5 -66.5t33.5 -134.5q0 -262 -313 -262q-309 1 -319 271z" />
<glyph unicode="&#xb4;" horiz-adv-x="681" d="M209 1221l174 299h315l-292 -299h-197z" />
<glyph unicode="&#xb5;" horiz-adv-x="1251" d="M135 -416v1495h285v-497q0 -227 40 -301t148 -74q139 0 180 80t41 317v475h285v-1079h-268l-2 82q-51 -109 -226 -109q-84 0 -129 22.5t-69 84.5v-496h-285z" />
<glyph unicode="&#xb6;" d="M-8 1061q0 213 117.5 298t390.5 85h639v-225h-84v-1614h-234v1614h-166v-1614h-233v1081q-238 8 -334 99.5t-96 275.5z" />
<glyph unicode="&#xb7;" horiz-adv-x="569" d="M121 584q0 84 32.5 118.5t129 34.5t130 -34.5t33.5 -118.5t-33.5 -118t-130 -34t-129 34t-32.5 118z" />
<glyph unicode="&#xb8;" horiz-adv-x="681" d="M33 -410l16 105q70 -25 168 -25q66 0 93.5 17.5t27.5 60.5q0 37 -20.5 52.5t-65.5 15.5h-72l31 204h106l-16 -96h21q206 0 206 -184q0 -100 -64.5 -145.5t-207.5 -45.5q-63 0 -118.5 10.5t-80.5 20.5z" />
<glyph unicode="&#xb9;" horiz-adv-x="681" d="M66 1169v136l256 163h165v-833h-200v608z" />
<glyph unicode="&#xba;" horiz-adv-x="747" d="M16 1149q0 182 85 268t274 86q190 0 273 -87t83 -267q0 -182 -84 -269t-272.5 -87t-273.5 87t-85 269zM221 1147q0 -104 36 -151.5t118 -47.5q80 0 115.5 48t35.5 152.5t-35.5 152t-115.5 47.5q-82 0 -118 -49.5t-36 -151.5z" />
<glyph unicode="&#xbb;" d="M100 287l275 272l-275 272l136 136l327 -326v-164l-327 -325zM530 287l275 272l-275 272l136 136l327 -326v-164l-327 -325z" />
<glyph unicode="&#xbc;" horiz-adv-x="1708" d="M66 1169v136l256 163h165v-833h-200v608zM326 0l845 1468h158l-844 -1468h-159zM924 168v149q133 281 360 510h199v-516h104v-143h-104v-168h-189v168h-370zM1081 311h213v316q-115 -128 -213 -316z" />
<glyph unicode="&#xbd;" horiz-adv-x="1708" d="M66 1169v136l256 163h165v-833h-200v608zM326 0l845 1468h158l-844 -1468h-159zM1004 0q6 102 24.5 150.5t74.5 100.5t195 140q72 43 108 85t36 104q0 96 -119 96q-41 0 -66.5 -9.5t-37 -30t-15.5 -39.5t-4 -52h-184q2 154 78.5 220t236.5 66q162 0 232.5 -65.5 t70.5 -200.5q0 -86 -33.5 -142t-132.5 -116q-119 -72 -148.5 -95.5t-43.5 -49.5h358v-162h-630z" />
<glyph unicode="&#xbe;" horiz-adv-x="1708" d="M35 883h182q2 -61 27.5 -91t99.5 -30q66 0 95.5 28.5t29.5 96.5q0 61 -29.5 84.5t-113.5 23.5h-50v133h37q66 0 97.5 19.5t31.5 81.5q0 45 -22.5 66.5t-79.5 21.5q-68 0 -91.5 -27.5t-23.5 -81.5h-176q4 139 70.5 199.5t222.5 60.5q152 0 222.5 -55t70.5 -172 q0 -68 -24.5 -103.5t-82.5 -62.5q72 -23 106 -66.5t34 -134.5q0 -262 -314 -262q-309 1 -319 271zM391 0l850 1468h158l-846 -1468h-162zM969 168v149q133 281 360 510h199v-516h104v-143h-104v-168h-189v168h-370zM1126 311h213v316q-115 -128 -213 -316z" />
<glyph unicode="&#xbf;" horiz-adv-x="1251" d="M106 25q0 86 15.5 146t57.5 105.5t77 70t109 65.5q82 47 104.5 92t22.5 166h264q0 -143 -21.5 -220t-57.5 -113t-128 -93q-59 -37 -84 -57.5t-45.5 -63.5t-20.5 -107q0 -104 49.5 -146t167.5 -42q131 0 179.5 48t60.5 179h285q-2 -135 -37 -227t-104.5 -142.5t-159.5 -71 t-215 -20.5q-254 0 -386.5 94.5t-132.5 336.5zM453 940q0 84 33.5 118t130 34t129 -34t32.5 -118t-32.5 -119t-129 -35t-130 35t-33.5 119z" />
<glyph unicode="&#xc0;" horiz-adv-x="1478" d="M27 0q233 780 540 1468h340q324 -718 543 -1468h-332q-27 102 -88 311h-596l-86 -311h-321zM383 1896h313l174 -299h-196zM514 563h436q-100 300 -217 570q-117 -262 -219 -570z" />
<glyph unicode="&#xc1;" horiz-adv-x="1478" d="M27 0q233 780 540 1468h340q324 -718 543 -1468h-332q-27 102 -88 311h-596l-86 -311h-321zM514 563h436q-100 300 -217 570q-117 -262 -219 -570zM608 1597l174 299h316l-293 -299h-197z" />
<glyph unicode="&#xc2;" horiz-adv-x="1478" d="M27 0q233 780 540 1468h340q324 -718 543 -1468h-332q-27 102 -88 311h-596l-86 -311h-321zM387 1599l225 297h256l226 -297h-230l-127 162l-121 -162h-229zM514 563h436q-100 300 -217 570q-117 -262 -219 -570z" />
<glyph unicode="&#xc3;" horiz-adv-x="1478" d="M27 0q233 780 540 1468h340q324 -718 543 -1468h-332q-27 102 -88 311h-596l-86 -311h-321zM375 1612q0 254 213 254q74 0 157.5 -39t135.5 -39q45 0 61 18.5t29 65.5h131q0 -133 -47 -190.5t-152 -57.5q-78 0 -172 38t-137 38q-82 0 -92 -88h-127zM514 563h436 q-100 300 -217 570q-117 -262 -219 -570z" />
<glyph unicode="&#xc4;" horiz-adv-x="1478" d="M27 0q233 780 540 1468h340q324 -718 543 -1468h-332q-27 102 -88 311h-596l-86 -311h-321zM387 1739q0 76 29.5 107.5t115.5 31.5t117 -31.5t31 -107.5t-29.5 -106.5t-118.5 -30.5q-86 0 -115.5 30.5t-29.5 106.5zM514 563h436q-100 300 -217 570q-117 -262 -219 -570z M799 1739q0 76 29.5 107.5t115.5 31.5t117 -31.5t31 -107.5t-30 -106.5t-118 -30.5q-86 0 -115.5 30.5t-29.5 106.5z" />
<glyph unicode="&#xc5;" horiz-adv-x="1478" d="M27 0q233 780 540 1468h340q324 -718 543 -1468h-332q-27 102 -88 311h-596l-86 -311h-321zM506 1759.5q0 227.5 233.5 227.5t233.5 -227.5t-233.5 -227.5t-233.5 227.5zM514 563h436q-100 300 -217 570q-117 -262 -219 -570zM635 1759.5q0 -104.5 104.5 -104.5 t104.5 104.5t-104.5 104.5t-104.5 -104.5z" />
<glyph unicode="&#xc6;" horiz-adv-x="2048" d="M27 0q233 780 540 1468h1366v-251h-704v-322h635v-252h-635v-391h723v-252h-1026v311h-492q-47 -158 -86 -311h-321zM512 563h414v654h-166q-129 -291 -248 -654z" />
<glyph unicode="&#xc7;" horiz-adv-x="1478" d="M92 727q0 397 163 585.5t505 188.5q559 0 631 -489h-304q-31 119 -94 175t-233 56q-190 0 -275.5 -126t-85.5 -417q0 -242 81 -358.5t284 -116.5q156 0 230.5 57.5t92.5 200.5h304q-37 -487 -572 -514l-6 -45h21q206 0 206 -184q0 -100 -64.5 -145.5t-207.5 -45.5 q-63 0 -118.5 10.5t-80.5 20.5l-24 10l16 105q70 -25 168 -25q66 0 93.5 17.5t27.5 60.5q0 37 -20.5 52.5t-65.5 15.5h-72l23 153q-315 10 -469 190.5t-154 567.5z" />
<glyph unicode="&#xc8;" horiz-adv-x="1366" d="M154 0v1468h1083v-251h-780v-322h721v-252h-721v-391h813v-252h-1116zM326 1896h313l174 -299h-197z" />
<glyph unicode="&#xc9;" horiz-adv-x="1366" d="M154 0v1468h1083v-251h-780v-322h721v-252h-721v-391h813v-252h-1116zM551 1597l174 299h315l-292 -299h-197z" />
<glyph unicode="&#xca;" horiz-adv-x="1366" d="M154 0v1468h1083v-251h-780v-322h721v-252h-721v-391h813v-252h-1116zM328 1599l225 297h256l225 -297h-229l-127 162l-121 -162h-229z" />
<glyph unicode="&#xcb;" horiz-adv-x="1366" d="M154 0v1468h1083v-251h-780v-322h721v-252h-721v-391h813v-252h-1116zM330 1739q0 76 29.5 107.5t115.5 31.5t117 -31.5t31 -107.5t-30 -106.5t-118 -30.5q-86 0 -115.5 30.5t-29.5 106.5zM741 1739q0 76 30 107.5t116 31.5t116.5 -31.5t30.5 -107.5t-29.5 -106.5 t-117.5 -30.5q-86 0 -116 30.5t-30 106.5z" />
<glyph unicode="&#xcc;" horiz-adv-x="569" d="M-72 1896h314l174 -299h-197zM133 0v1468h303v-1468h-303z" />
<glyph unicode="&#xcd;" horiz-adv-x="569" d="M133 0v1468h303v-1468h-303zM154 1597l174 299h315l-293 -299h-196z" />
<glyph unicode="&#xce;" horiz-adv-x="569" d="M-68 1599l226 297h256l225 -297h-229l-127 162l-121 -162h-230zM133 0v1468h303v-1468h-303z" />
<glyph unicode="&#xcf;" horiz-adv-x="569" d="M-68 1739q0 76 30 107.5t116 31.5t116.5 -31.5t30.5 -107.5t-29.5 -106.5t-117.5 -30.5q-86 0 -116 30.5t-30 106.5zM133 0v1468h303v-1468h-303zM344 1739q0 76 29.5 107.5t115.5 31.5t117 -31.5t31 -107.5t-29.5 -106.5t-118.5 -30.5q-86 0 -115.5 30.5t-29.5 106.5z " />
<glyph unicode="&#xd0;" horiz-adv-x="1478" d="M-4 639v238h158v591h612q346 0 487.5 -164.5t141.5 -562.5q0 -180 -28 -308t-96.5 -230.5t-194.5 -152.5t-312 -50h-610v639h-158zM453 252h272q217 0 287.5 100.5t70.5 386.5q0 137 -14 224.5t-36.5 139.5t-76 76.5t-108 31t-156.5 6.5h-239v-340h331v-238h-331v-387z " />
<glyph unicode="&#xd1;" horiz-adv-x="1478" d="M147 0v1468h310l571 -968v968h303v-1468h-303l-577 975v-975h-304zM375 1612q0 254 213 254q74 0 157.5 -39t135.5 -39q45 0 61 18.5t29 65.5h131q0 -133 -47 -190.5t-152 -57.5q-78 0 -172 38t-137 38q-82 0 -92 -88h-127z" />
<glyph unicode="&#xd2;" horiz-adv-x="1593" d="M88 735q0 193 43 335t108.5 223t163 129t187.5 63.5t203 15.5q117 0 210 -16.5t190 -65.5t162.5 -131t107.5 -223t42 -330q0 -186 -40 -326.5t-104.5 -222.5t-159.5 -133t-190.5 -68.5t-211.5 -17.5q-121 0 -219.5 18.5t-192.5 71t-157.5 136t-102.5 221t-39 321.5z M395 727q0 -158 24.5 -258t80 -153.5t126 -72t183.5 -18.5q72 0 121 8.5t103 38t88 83t55.5 151.5t21.5 237q0 279 -93 389.5t-314 110.5q-213 0 -304.5 -110.5t-91.5 -405.5zM440 1896h314l174 -299h-197z" />
<glyph unicode="&#xd3;" horiz-adv-x="1593" d="M88 735q0 193 43 335t108.5 223t163 129t187.5 63.5t203 15.5q117 0 210 -16.5t190 -65.5t162.5 -131t107.5 -223t42 -330q0 -186 -40 -326.5t-104.5 -222.5t-159.5 -133t-190.5 -68.5t-211.5 -17.5q-121 0 -219.5 18.5t-192.5 71t-157.5 136t-102.5 221t-39 321.5z M395 727q0 -158 24.5 -258t80 -153.5t126 -72t183.5 -18.5q72 0 121 8.5t103 38t88 83t55.5 151.5t21.5 237q0 279 -93 389.5t-314 110.5q-213 0 -304.5 -110.5t-91.5 -405.5zM666 1597l174 299h315l-293 -299h-196z" />
<glyph unicode="&#xd4;" horiz-adv-x="1593" d="M88 735q0 193 43 335t108.5 223t163 129t187.5 63.5t203 15.5q117 0 210 -16.5t190 -65.5t162.5 -131t107.5 -223t42 -330q0 -186 -40 -326.5t-104.5 -222.5t-159.5 -133t-190.5 -68.5t-211.5 -17.5q-121 0 -219.5 18.5t-192.5 71t-157.5 136t-102.5 221t-39 321.5z M395 727q0 -158 24.5 -258t80 -153.5t126 -72t183.5 -18.5q72 0 121 8.5t103 38t88 83t55.5 151.5t21.5 237q0 279 -93 389.5t-314 110.5q-213 0 -304.5 -110.5t-91.5 -405.5zM444 1599l226 297h256l225 -297h-229l-127 162l-121 -162h-230z" />
<glyph unicode="&#xd5;" horiz-adv-x="1593" d="M88 735q0 193 43 335t108.5 223t163 129t187.5 63.5t203 15.5q117 0 210 -16.5t190 -65.5t162.5 -131t107.5 -223t42 -330q0 -186 -40 -326.5t-104.5 -222.5t-159.5 -133t-190.5 -68.5t-211.5 -17.5q-121 0 -219.5 18.5t-192.5 71t-157.5 136t-102.5 221t-39 321.5z M395 727q0 -158 24.5 -258t80 -153.5t126 -72t183.5 -18.5q72 0 121 8.5t103 38t88 83t55.5 151.5t21.5 237q0 279 -93 389.5t-314 110.5q-213 0 -304.5 -110.5t-91.5 -405.5zM434 1612q0 254 213 254q74 0 158 -39t135 -39q45 0 61.5 18.5t28.5 65.5h131q0 -133 -46 -190.5 t-152 -57.5q-78 0 -172.5 38t-137.5 38q-82 0 -92 -88h-127z" />
<glyph unicode="&#xd6;" horiz-adv-x="1593" d="M88 735q0 193 43 335t108.5 223t163 129t187.5 63.5t203 15.5q117 0 210 -16.5t190 -65.5t162.5 -131t107.5 -223t42 -330q0 -186 -40 -326.5t-104.5 -222.5t-159.5 -133t-190.5 -68.5t-211.5 -17.5q-121 0 -219.5 18.5t-192.5 71t-157.5 136t-102.5 221t-39 321.5z M395 727q0 -158 24.5 -258t80 -153.5t126 -72t183.5 -18.5q72 0 121 8.5t103 38t88 83t55.5 151.5t21.5 237q0 279 -93 389.5t-314 110.5q-213 0 -304.5 -110.5t-91.5 -405.5zM444 1739q0 76 30 107.5t116 31.5t116.5 -31.5t30.5 -107.5t-29.5 -106.5t-117.5 -30.5 q-86 0 -116 30.5t-30 106.5zM856 1739q0 76 29.5 107.5t115.5 31.5t117 -31.5t31 -107.5t-29.5 -106.5t-118.5 -30.5q-86 0 -115.5 30.5t-29.5 106.5z" />
<glyph unicode="&#xd7;" horiz-adv-x="1196" d="M90 250l338 336l-338 338l170 170l338 -338l336 338l168 -170l-336 -336l338 -338l-170 -170l-338 338l-336 -336z" />
<glyph unicode="&#xd8;" horiz-adv-x="1593" d="M49 45l160 176q-121 186 -121 514q0 193 43 335t108.5 223t163 129t187.5 63.5t203 15.5q297 0 464 -123l150 166l137 -125l-160 -176q121 -188 121 -508q0 -186 -40 -326.5t-104.5 -222.5t-159.5 -133t-190.5 -68.5t-211.5 -17.5q-293 0 -461 119l-152 -166zM395 727 q0 -162 29 -270l643 712q-92 74 -276 74q-213 0 -304.5 -110.5t-91.5 -405.5zM522 291q84 -66 285 -66q72 0 121 8.5t104 38t89 83t55.5 151.5t21.5 237q0 158 -31 261z" />
<glyph unicode="&#xd9;" horiz-adv-x="1478" d="M150 502v966h303v-774q0 -106 2 -165.5t12 -120t27.5 -89t51.5 -54t81 -33t116 -7.5q184 0 233.5 84t49.5 373v786h303v-970q0 -166 -40 -273.5t-121 -162t-177 -75t-237 -20.5q-147 0 -250 21.5t-188 78t-125.5 164t-40.5 271.5zM383 1896h313l174 -299h-196z" />
<glyph unicode="&#xda;" horiz-adv-x="1478" d="M150 502v966h303v-774q0 -106 2 -165.5t12 -120t27.5 -89t51.5 -54t81 -33t116 -7.5q184 0 233.5 84t49.5 373v786h303v-970q0 -166 -40 -273.5t-121 -162t-177 -75t-237 -20.5q-147 0 -250 21.5t-188 78t-125.5 164t-40.5 271.5zM608 1597l174 299h316l-293 -299h-197z " />
<glyph unicode="&#xdb;" horiz-adv-x="1478" d="M150 502v966h303v-774q0 -106 2 -165.5t12 -120t27.5 -89t51.5 -54t81 -33t116 -7.5q184 0 233.5 84t49.5 373v786h303v-970q0 -166 -40 -273.5t-121 -162t-177 -75t-237 -20.5q-147 0 -250 21.5t-188 78t-125.5 164t-40.5 271.5zM387 1599l225 297h256l226 -297h-230 l-127 162l-121 -162h-229z" />
<glyph unicode="&#xdc;" horiz-adv-x="1478" d="M150 502v966h303v-774q0 -106 2 -165.5t12 -120t27.5 -89t51.5 -54t81 -33t116 -7.5q184 0 233.5 84t49.5 373v786h303v-970q0 -166 -40 -273.5t-121 -162t-177 -75t-237 -20.5q-147 0 -250 21.5t-188 78t-125.5 164t-40.5 271.5zM387 1739q0 76 29.5 107.5t115.5 31.5 t117 -31.5t31 -107.5t-29.5 -106.5t-118.5 -30.5q-86 0 -115.5 30.5t-29.5 106.5zM799 1739q0 76 29.5 107.5t115.5 31.5t117 -31.5t31 -107.5t-30 -106.5t-118 -30.5q-86 0 -115.5 30.5t-29.5 106.5z" />
<glyph unicode="&#xdd;" horiz-adv-x="1366" d="M18 1468h357q111 -293 319 -618q190 301 307 618h347q-221 -483 -508 -897v-571h-303v575q-287 399 -519 893zM549 1597l174 299h315l-293 -299h-196z" />
<glyph unicode="&#xde;" horiz-adv-x="1366" d="M154 0v1468h303v-227h372q233 0 342 -95t109 -347q0 -125 -27.5 -214t-75 -142.5t-124 -84t-157.5 -41t-196 -10.5h-243v-307h-303zM457 559h211q61 0 92 1t74 8t62 21.5t39.5 40t29 66.5t8.5 99q0 121 -58.5 157.5t-248.5 36.5h-209v-430z" />
<glyph unicode="&#xdf;" horiz-adv-x="1251" d="M137 971q0 139 15.5 225t61.5 160t140.5 105.5t243.5 31.5q231 0 345 -84t114 -270q0 -80 -21.5 -138.5t-48 -83t-48 -54t-21.5 -60.5q0 -35 26.5 -61.5t65.5 -50t76.5 -56.5t64.5 -98.5t27 -159.5q0 -182 -101.5 -291t-302.5 -109q-143 0 -229 43v195q78 -12 155 -12 q193 0 193 174q0 63 -26.5 104t-65.5 63.5t-77 47t-64.5 74t-26.5 127.5q0 63 21.5 103t48 57.5t48 56.5t21.5 100q0 92 -43 121t-129 29q-111 0 -144.5 -53.5t-33.5 -248.5v-958h-285v971z" />
<glyph unicode="&#xe0;" d="M66 272q0 166 88 250t225 105l356 55v66q0 74 -41 101.5t-143 27.5t-138 -26.5t-46 -98.5h-269q10 201 122 277.5t343 76.5q233 0 345 -71.5t112 -243.5v-791h-272v82q-104 -109 -332 -109q-186 0 -268 77t-82 222zM213 1520h313l174 -299h-196zM350 311q0 -63 38 -95 t130 -32q123 0 170 58.5t47 169.5v86l-198 -33q-96 -14 -141.5 -45t-45.5 -109z" />
<glyph unicode="&#xe1;" d="M66 272q0 166 88 250t225 105l356 55v66q0 74 -41 101.5t-143 27.5t-138 -26.5t-46 -98.5h-269q10 201 122 277.5t343 76.5q233 0 345 -71.5t112 -243.5v-791h-272v82q-104 -109 -332 -109q-186 0 -268 77t-82 222zM350 311q0 -63 38 -95t130 -32q123 0 170 58.5 t47 169.5v86l-198 -33q-96 -14 -141.5 -45t-45.5 -109zM438 1221l174 299h316l-293 -299h-197z" />
<glyph unicode="&#xe2;" d="M66 272q0 166 88 250t225 105l356 55v66q0 74 -41 101.5t-143 27.5t-138 -26.5t-46 -98.5h-269q10 201 122 277.5t343 76.5q233 0 345 -71.5t112 -243.5v-791h-272v82q-104 -109 -332 -109q-186 0 -268 77t-82 222zM217 1223l225 297h256l226 -297h-230l-127 161 l-121 -161h-229zM350 311q0 -63 38 -95t130 -32q123 0 170 58.5t47 169.5v86l-198 -33q-96 -14 -141.5 -45t-45.5 -109z" />
<glyph unicode="&#xe3;" d="M66 272q0 166 88 250t225 105l356 55v66q0 74 -41 101.5t-143 27.5t-138 -26.5t-46 -98.5h-269q10 201 122 277.5t343 76.5q233 0 345 -71.5t112 -243.5v-791h-272v82q-104 -109 -332 -109q-186 0 -268 77t-82 222zM205 1235q0 254 213 254q74 0 157.5 -39t135.5 -39 q45 0 61 18.5t29 65.5h131q0 -133 -46 -190.5t-153 -57.5q-78 0 -172 38t-137 38q-82 0 -92 -88h-127zM350 311q0 -63 38 -95t130 -32q123 0 170 58.5t47 169.5v86l-198 -33q-96 -14 -141.5 -45t-45.5 -109z" />
<glyph unicode="&#xe4;" d="M66 272q0 166 88 250t225 105l356 55v66q0 74 -41 101.5t-143 27.5t-138 -26.5t-46 -98.5h-269q10 201 122 277.5t343 76.5q233 0 345 -71.5t112 -243.5v-791h-272v82q-104 -109 -332 -109q-186 0 -268 77t-82 222zM217 1362q0 76 29.5 107.5t116 31.5t117 -31.5 t30.5 -107.5t-29.5 -106.5t-118.5 -30.5q-86 0 -115.5 30.5t-29.5 106.5zM350 311q0 -63 38 -95t130 -32q123 0 170 58.5t47 169.5v86l-198 -33q-96 -14 -141.5 -45t-45.5 -109zM629 1362q0 76 29.5 107.5t115.5 31.5t117 -31.5t31 -107.5t-30 -106.5t-118 -30.5 q-86 0 -115.5 30.5t-29.5 106.5z" />
<glyph unicode="&#xe5;" d="M66 272q0 166 88 250t225 105l356 55v66q0 74 -41 101.5t-143 27.5t-138 -26.5t-46 -98.5h-269q10 201 122 277.5t343 76.5q233 0 345 -71.5t112 -243.5v-791h-272v82q-104 -109 -332 -109q-186 0 -268 77t-82 222zM344 1382.5q0 227.5 233.5 227.5t233.5 -227.5 t-233.5 -227.5t-233.5 227.5zM350 311q0 -63 38 -95t130 -32q123 0 170 58.5t47 169.5v86l-198 -33q-96 -14 -141.5 -45t-45.5 -109zM473 1382.5q0 -104.5 104.5 -104.5t104.5 104.5t-104.5 104.5t-104.5 -104.5z" />
<glyph unicode="&#xe6;" horiz-adv-x="1820" d="M86 270q0 305 313 357l357 55v66q0 74 -41 101.5t-143.5 27.5t-138.5 -27t-46 -98h-268q10 199 121.5 276.5t347.5 77.5q252 0 338 -98q119 98 334 98q283 0 389 -143.5t106 -501.5h-721q8 -150 49 -202t187 -52q88 0 125 18t57 84h291q-25 -184 -146.5 -260t-341.5 -76 q-309 0 -403 164q-70 -82 -157 -123t-249 -41q-195 0 -277.5 76t-82.5 221zM371 311q0 -66 36.5 -96.5t129.5 -30.5q123 0 171 59.5t48 168.5v86l-203 -33q-92 -12 -137 -44t-45 -110zM1034 641h436q-8 139 -59 185t-158 46q-123 0 -167 -49t-52 -182z" />
<glyph unicode="&#xe7;" d="M76 528q0 283 113.5 430.5t412.5 147.5q229 0 340 -94t133 -297h-284q-18 86 -59.5 121.5t-143.5 35.5q-121 0 -170 -66.5t-49 -266.5q0 -199 47 -265.5t157.5 -66.5t160.5 45t57 131h284q-18 -188 -117.5 -292.5t-322.5 -115.5l-8 -51h20q207 0 207 -186 q0 -98 -64.5 -143.5t-207.5 -45.5q-63 0 -118.5 10.5t-80.5 20.5l-25 10l17 105q70 -25 168 -25q66 0 93.5 17.5t27.5 60.5q0 37 -20.5 52.5t-65.5 15.5h-72l22 159q-137 8 -229 52.5t-139 122t-65.5 167t-18.5 211.5z" />
<glyph unicode="&#xe8;" d="M53 551q0 100 12.5 177t46 150.5t91 122t153 77t226.5 28.5q281 0 386 -143.5t105 -501.5h-727q8 -152 54 -203t167 -51q86 0 134.5 21.5t68.5 80.5h291q-25 -180 -144.5 -258t-347.5 -78q-131 0 -222 26t-159.5 89.5t-101.5 178t-33 284.5zM213 1520h313l174 -299h-196z M348 641h440q-8 139 -60 185t-161 46q-123 0 -167 -49t-52 -182z" />
<glyph unicode="&#xe9;" d="M53 551q0 100 12.5 177t46 150.5t91 122t153 77t226.5 28.5q281 0 386 -143.5t105 -501.5h-727q8 -152 54 -203t167 -51q86 0 134.5 21.5t68.5 80.5h291q-25 -180 -144.5 -258t-347.5 -78q-131 0 -222 26t-159.5 89.5t-101.5 178t-33 284.5zM348 641h440q-8 139 -60 185 t-161 46q-123 0 -167 -49t-52 -182zM438 1221l174 299h316l-293 -299h-197z" />
<glyph unicode="&#xea;" d="M53 551q0 100 12.5 177t46 150.5t91 122t153 77t226.5 28.5q281 0 386 -143.5t105 -501.5h-727q8 -152 54 -203t167 -51q86 0 134.5 21.5t68.5 80.5h291q-25 -180 -144.5 -258t-347.5 -78q-131 0 -222 26t-159.5 89.5t-101.5 178t-33 284.5zM217 1223l225 297h256 l226 -297h-230l-127 161l-121 -161h-229zM348 641h440q-8 139 -60 185t-161 46q-123 0 -167 -49t-52 -182z" />
<glyph unicode="&#xeb;" d="M53 551q0 100 12.5 177t46 150.5t91 122t153 77t226.5 28.5q281 0 386 -143.5t105 -501.5h-727q8 -152 54 -203t167 -51q86 0 134.5 21.5t68.5 80.5h291q-25 -180 -144.5 -258t-347.5 -78q-131 0 -222 26t-159.5 89.5t-101.5 178t-33 284.5zM217 1362q0 76 29.5 107.5 t116 31.5t117 -31.5t30.5 -107.5t-29.5 -106.5t-118.5 -30.5q-86 0 -115.5 30.5t-29.5 106.5zM348 641h440q-8 139 -60 185t-161 46q-123 0 -167 -49t-52 -182zM629 1362q0 76 29.5 107.5t115.5 31.5t117 -31.5t31 -107.5t-30 -106.5t-118 -30.5q-86 0 -115.5 30.5 t-29.5 106.5z" />
<glyph unicode="&#xec;" horiz-adv-x="569" d="M-72 1520h314l174 -299h-197zM141 0v1079h285v-1079h-285z" />
<glyph unicode="&#xed;" horiz-adv-x="569" d="M141 0v1079h285v-1079h-285zM154 1221l174 299h315l-293 -299h-196z" />
<glyph unicode="&#xee;" horiz-adv-x="569" d="M-68 1223l226 297h256l225 -297h-229l-127 161l-121 -161h-230zM141 0v1079h285v-1079h-285z" />
<glyph unicode="&#xef;" horiz-adv-x="569" d="M-68 1362q0 76 30 107.5t116 31.5t116.5 -31.5t30.5 -107.5t-29.5 -106.5t-117.5 -30.5q-86 0 -116 30.5t-30 106.5zM141 0v1079h285v-1079h-285zM344 1362q0 76 29.5 107.5t115.5 31.5t117 -31.5t31 -107.5t-29.5 -106.5t-118.5 -30.5q-86 0 -115.5 30.5t-29.5 106.5z " />
<glyph unicode="&#xf0;" horiz-adv-x="1251" d="M72 532q0 272 131 403.5t395 131.5q135 0 211 -74q-39 76 -71.5 121t-98.5 103l-236 -105l-51 121l176 80l-127 78l88 141q158 -72 244 -127l201 88l53 -125l-129 -57q168 -158 244 -317.5t76 -399.5q0 -324 -136 -472.5t-417 -148.5q-553 0 -553 559zM365 516 q0 -170 63.5 -239.5t183.5 -69.5q272 0 273 315q0 152 -60.5 232t-200 80t-199.5 -81t-60 -237z" />
<glyph unicode="&#xf1;" horiz-adv-x="1251" d="M135 0v1079h271v-139q63 86 142 126t218 40q203 0 275.5 -97.5t72.5 -349.5v-659h-285v621q0 51 -1 76.5t-6 61.5t-16 51t-31.5 32.5t-52.5 23.5t-77 6q-143 0 -184 -76.5t-41 -283.5v-512h-285zM264 1235q0 254 213 254q74 0 158 -39t135 -39q45 0 61.5 18.5t28.5 65.5 h131q0 -133 -47 -190.5t-151 -57.5q-78 0 -172.5 38t-137.5 38q-82 0 -92 -88h-127z" />
<glyph unicode="&#xf2;" horiz-adv-x="1251" d="M72 540.5q0 567.5 553 567.5q555 0 555 -567.5t-557 -567.5q-551 0 -551 567.5zM268 1520h314l174 -299h-197zM365 541q0 -186 58 -260t204 -74q143 0 201.5 74t58.5 262q0 182 -58.5 256.5t-203.5 74.5q-143 0 -201.5 -74.5t-58.5 -258.5z" />
<glyph unicode="&#xf3;" horiz-adv-x="1251" d="M72 540.5q0 567.5 553 567.5q555 0 555 -567.5t-557 -567.5q-551 0 -551 567.5zM365 541q0 -186 58 -260t204 -74q143 0 201.5 74t58.5 262q0 182 -58.5 256.5t-203.5 74.5q-143 0 -201.5 -74.5t-58.5 -258.5zM494 1221l174 299h315l-293 -299h-196z" />
<glyph unicode="&#xf4;" horiz-adv-x="1251" d="M72 540.5q0 567.5 553 567.5q555 0 555 -567.5t-557 -567.5q-551 0 -551 567.5zM272 1223l226 297h256l225 -297h-229l-127 161l-121 -161h-230zM365 541q0 -186 58 -260t204 -74q143 0 201.5 74t58.5 262q0 182 -58.5 256.5t-203.5 74.5q-143 0 -201.5 -74.5 t-58.5 -258.5z" />
<glyph unicode="&#xf5;" horiz-adv-x="1251" d="M72 540.5q0 567.5 553 567.5q555 0 555 -567.5t-557 -567.5q-551 0 -551 567.5zM262 1235q0 254 213 254q74 0 158 -39t135 -39q45 0 61.5 18.5t28.5 65.5h131q0 -133 -46 -190.5t-152 -57.5q-78 0 -172.5 38t-137.5 38q-82 0 -92 -88h-127zM365 541q0 -186 58 -260 t204 -74q143 0 201.5 74t58.5 262q0 182 -58.5 256.5t-203.5 74.5q-143 0 -201.5 -74.5t-58.5 -258.5z" />
<glyph unicode="&#xf6;" horiz-adv-x="1251" d="M72 540.5q0 567.5 553 567.5q555 0 555 -567.5t-557 -567.5q-551 0 -551 567.5zM272 1362q0 76 30 107.5t116 31.5t116.5 -31.5t30.5 -107.5t-29.5 -106.5t-117.5 -30.5q-86 0 -116 30.5t-30 106.5zM365 541q0 -186 58 -260t204 -74q143 0 201.5 74t58.5 262 q0 182 -58.5 256.5t-203.5 74.5q-143 0 -201.5 -74.5t-58.5 -258.5zM684 1362q0 76 29.5 107.5t115.5 31.5t117 -31.5t31 -107.5t-29.5 -106.5t-118.5 -30.5q-86 0 -115.5 30.5t-29.5 106.5z" />
<glyph unicode="&#xf7;" horiz-adv-x="1196" d="M82 467v240h1030v-240h-1030zM434 207q0 84 33 118.5t129 34.5t130 -34.5t34 -118.5t-34 -118t-130 -34t-129 34t-33 118zM434 967q0 84 33 118.5t129 34.5t130 -34.5t34 -118.5t-34 -118t-130 -34t-129 34t-33 118z" />
<glyph unicode="&#xf8;" horiz-adv-x="1251" d="M43 25l127 137q-98 137 -98 379q0 567 553 567q207 0 340 -84l120 131l123 -111l-125 -135q97 -137 97 -368q0 -567 -557 -568q-205 0 -332 78l-123 -133zM365 541q0 -92 12 -154l411 447q-64 40 -158 40h-5q-143 0 -201.5 -74.5t-58.5 -258.5zM467 242q59 -35 160 -35 q143 0 201.5 74t58.5 262q0 76 -10 141z" />
<glyph unicode="&#xf9;" horiz-adv-x="1251" d="M137 379v700h285v-682q0 -109 40 -149.5t148 -40.5q117 0 167 52t50 198v622h285v-1079h-268v115q-88 -141 -334 -142q-201 0 -287 89.5t-86 316.5zM268 1520h314l174 -299h-197z" />
<glyph unicode="&#xfa;" horiz-adv-x="1251" d="M137 379v700h285v-682q0 -109 40 -149.5t148 -40.5q117 0 167 52t50 198v622h285v-1079h-268v115q-88 -141 -334 -142q-201 0 -287 89.5t-86 316.5zM494 1221l174 299h315l-293 -299h-196z" />
<glyph unicode="&#xfb;" horiz-adv-x="1251" d="M137 379v700h285v-682q0 -109 40 -149.5t148 -40.5q117 0 167 52t50 198v622h285v-1079h-268v115q-88 -141 -334 -142q-201 0 -287 89.5t-86 316.5zM272 1223l226 297h256l225 -297h-229l-127 161l-121 -161h-230z" />
<glyph unicode="&#xfc;" horiz-adv-x="1251" d="M137 379v700h285v-682q0 -109 40 -149.5t148 -40.5q117 0 167 52t50 198v622h285v-1079h-268v115q-88 -141 -334 -142q-201 0 -287 89.5t-86 316.5zM272 1362q0 76 30 107.5t116 31.5t116.5 -31.5t30.5 -107.5t-29.5 -106.5t-117.5 -30.5q-86 0 -116 30.5t-30 106.5z M684 1362q0 76 29.5 107.5t115.5 31.5t117 -31.5t31 -107.5t-29.5 -106.5t-118.5 -30.5q-86 0 -115.5 30.5t-29.5 106.5z" />
<glyph unicode="&#xfd;" d="M18 1079h314q80 -393 239 -786l236 786h299l-385 -1079q-43 -121 -66.5 -179.5t-58.5 -118.5t-73 -84t-92 -38t-134 -14l-143 8v223q27 -4 47 -4q96 0 146 32t75 146q-246 539 -404 1108zM438 1221l174 299h316l-293 -299h-197z" />
<glyph unicode="&#xfe;" horiz-adv-x="1251" d="M131 -418v1886h285v-503q41 45 69.5 69.5t97 48t162.5 23.5q219 0 327 -127t108 -442q0 -279 -99.5 -421.5t-345.5 -142.5q-125 0 -192.5 27t-126.5 94v-512h-285zM406 522q0 -172 50 -243.5t193 -71.5q141 0 189.5 72.5t48.5 259.5q0 190 -48 261.5t-182 71.5 q-139 0 -195 -75.5t-56 -274.5z" />
<glyph unicode="&#xff;" d="M18 1079h314q80 -393 239 -786l236 786h299l-385 -1079q-43 -121 -66.5 -179.5t-58.5 -118.5t-73 -84t-92 -38t-134 -14l-143 8v223q27 -4 47 -4q96 0 146 32t75 146q-246 539 -404 1108zM217 1362q0 76 29.5 107.5t116 31.5t117 -31.5t30.5 -107.5t-29.5 -106.5 t-118.5 -30.5q-86 0 -115.5 30.5t-29.5 106.5zM629 1362q0 76 29.5 107.5t115.5 31.5t117 -31.5t31 -107.5t-30 -106.5t-118 -30.5q-86 0 -115.5 30.5t-29.5 106.5z" />
<glyph unicode="&#x152;" horiz-adv-x="2048" d="M88 733q0 221 48 377t136 239t193.5 117.5t239.5 34.5q211 0 313 -94v61h944v-251h-641v-322h592v-252h-592v-391h651v-252h-954v59q-100 -92 -309 -92q-297 0 -459 178t-162 588zM395 729q0 -209 37 -320.5t101.5 -147.5t183.5 -36q55 0 93 7.5t82 38t69.5 85t43 154.5 t17.5 242q0 274 -70.5 382.5t-246.5 108.5q-170 0 -240 -109.5t-70 -404.5z" />
<glyph unicode="&#x153;" horiz-adv-x="1933" d="M72 543q0 287 132 425t400 138q270 0 387 -145q63 74 149.5 109.5t235.5 35.5q281 0 386.5 -143.5t105.5 -501.5h-729q10 -150 52 -202t191 -52q88 0 125.5 18t57.5 84h290q-25 -184 -146.5 -260t-338.5 -76q-289 0 -387 138q-117 -137 -381 -138q-115 0 -203 26 t-165.5 86t-119.5 176t-42 282zM365 541q0 -190 50 -262t191 -72q139 0 189.5 70.5t50.5 265.5q0 186 -49 257.5t-193 71.5q-141 0 -190 -71.5t-49 -259.5zM1139 641h440q-8 139 -59.5 185t-157.5 46q-123 0 -169 -49t-54 -182z" />
<glyph unicode="&#x178;" horiz-adv-x="1366" d="M18 1468h357q111 -293 319 -618q190 301 307 618h347q-221 -483 -508 -897v-571h-303v575q-287 399 -519 893zM330 1739q0 76 29.5 107.5t115.5 31.5t117 -31.5t31 -107.5t-30 -106.5t-118 -30.5q-86 0 -115.5 30.5t-29.5 106.5zM741 1739q0 76 30 107.5t116 31.5 t116.5 -31.5t30.5 -107.5t-29.5 -106.5t-117.5 -30.5q-86 0 -116 30.5t-30 106.5z" />
<glyph unicode="&#x2c6;" horiz-adv-x="681" d="M-12 1223l225 297h256l225 -297h-229l-127 161l-121 -161h-229z" />
<glyph unicode="&#x2dc;" horiz-adv-x="681" d="M-23 1235q0 254 213 254q74 0 158 -39t135 -39q45 0 61.5 18.5t28.5 65.5h132q0 -133 -47.5 -190.5t-151.5 -57.5q-78 0 -172 38t-137 38q-83 0 -93 -88h-127z" />
<glyph unicode="&#x2013;" d="M57 451v215h1024v-215h-1024z" />
<glyph unicode="&#x2014;" horiz-adv-x="2048" d="M-4 451v215h2056v-215h-2056z" />
<glyph unicode="&#x2018;" horiz-adv-x="569" d="M131 1073q0 244 58.5 326t213.5 82v-127q-66 0 -87 -32t-29 -132q92 0 122.5 -32t30.5 -111q0 -82 -30.5 -115t-122.5 -33q-94 0 -125 38t-31 136z" />
<glyph unicode="&#x2019;" horiz-adv-x="569" d="M129 1333q0 82 30.5 115t123.5 33q96 0 125.5 -37t29.5 -137q0 -244 -58 -326t-214 -82v127q66 0 87.5 32t29.5 132q-92 0 -123 31.5t-31 111.5z" />
<glyph unicode="&#x201a;" horiz-adv-x="569" d="M127 131q0 82 30.5 115t123.5 33q84 0 119.5 -42t35.5 -133q0 -244 -58.5 -325.5t-213.5 -81.5v127q66 0 87.5 32t29.5 132q-92 0 -123 31.5t-31 111.5z" />
<glyph unicode="&#x201c;" horiz-adv-x="1024" d="M119 1073q0 244 58.5 326t213.5 82v-127q-66 0 -87.5 -32t-29.5 -132q92 0 123 -32t31 -111q0 -82 -30.5 -115t-123.5 -33q-94 0 -124.5 36t-30.5 138zM594 1073q0 244 58.5 326t213.5 82v-127q-66 0 -87 -32t-29 -132q92 0 122.5 -32t30.5 -111q0 -82 -30.5 -115 t-122.5 -33q-94 0 -125 36t-31 138z" />
<glyph unicode="&#x201d;" horiz-adv-x="1024" d="M119 1333q0 82 30.5 115t123 33t124 -37t31.5 -137q0 -244 -58.5 -326t-213.5 -82v127q66 0 87 32t29 132q-92 0 -122.5 31.5t-30.5 111.5zM594 1333q0 82 30.5 115t123.5 33q94 0 124.5 -36t30.5 -138q0 -244 -58.5 -326t-213.5 -82v127q66 0 87.5 32t29.5 132 q-92 0 -123 31.5t-31 111.5z" />
<glyph unicode="&#x201e;" horiz-adv-x="1024" d="M119 131q0 82 30.5 115t122.5 33q84 0 120 -42t36 -133q0 -244 -58.5 -325.5t-213.5 -81.5v127q66 0 87 32t29 132q-92 0 -122.5 31.5t-30.5 111.5zM594 131q0 82 30.5 115t123.5 33q84 0 119.5 -42t35.5 -133q0 -244 -58.5 -325.5t-213.5 -81.5v127q66 0 87.5 32 t29.5 132q-92 0 -123 31.5t-31 111.5z" />
<glyph unicode="&#x2022;" horiz-adv-x="716" d="M35 733q0 172 75.5 247t247.5 75t248 -75t76 -247t-77 -248.5t-247 -76.5q-172 0 -247.5 75.5t-75.5 249.5z" />
<glyph unicode="&#x2026;" horiz-adv-x="2048" d="M178 139q0 84 33 119t129 35t130 -35t34 -119t-34 -117.5t-130 -33.5t-129 33.5t-33 117.5zM860 139q0 84 33 119t129 35t130 -35t34 -119t-34 -117.5t-130 -33.5t-129 33.5t-33 117.5zM1542 139q0 84 33 119t129 35t130 -35t34 -119t-34 -117.5t-130 -33.5t-129 33.5 t-33 117.5z" />
<glyph unicode="&#x2039;" horiz-adv-x="681" d="M133 477v164l328 326l135 -136l-274 -272l274 -272l-135 -135z" />
<glyph unicode="&#x203a;" horiz-adv-x="681" d="M84 287l274 272l-274 272l135 136l328 -326v-164l-328 -325z" />
<glyph unicode="&#x20ac;" d="M4 477l66 180h94v111h-160l64 180h108q37 260 157 387t384 127q252 0 409 -137l-75 -225q-31 35 -54.5 56.5t-92 47t-156.5 25.5q-131 0 -196 -62.5t-79 -218.5h524l-61 -180h-471v-111h434l-63 -180h-363q12 -150 77.5 -213t225.5 -63q76 0 134.5 15t85 30.5t65.5 46.5 v-256q-121 -70 -303 -70q-203 0 -325 57.5t-178 164t-79 288.5h-172z" />
<glyph unicode="&#x2122;" horiz-adv-x="2048" d="M119 1305v163h686v-163h-244v-672h-196v672h-246zM944 633v835h295l178 -366l176 366h295v-835h-196v602l-197 -397h-160l-194 397v-602h-197z" />
<glyph unicode="&#xe000;" horiz-adv-x="1080" d="M0 1080h1080v-1080h-1080v1080z" />
<glyph unicode="&#xfb01;" horiz-adv-x="1251" d="M20 850v229h158v109q0 154 67.5 226.5t250.5 72.5l168 -12v-222q-70 4 -99 4q-37 0 -58.5 -7t-30.5 -27.5t-11 -38t-2 -54.5v-51h194v-229h-194v-850h-285v850h-158zM801 1343.5q0 83.5 32.5 118.5t129 35t130 -35t33.5 -118.5t-33.5 -117.5t-130 -34t-129 34 t-32.5 117.5zM821 0v1079h285v-1079h-285z" />
<glyph unicode="&#xfb02;" horiz-adv-x="1251" d="M20 850v229h158v109q0 154 67.5 226.5t250.5 72.5l168 -12v-222q-70 4 -99 4q-37 0 -58.5 -7t-30.5 -27.5t-11 -38t-2 -54.5v-51h194v-229h-194v-850h-285v850h-158zM821 0v1468h285v-1468h-285z" />
<glyph unicode="&#xfb03;" horiz-adv-x="1931" d="M20 850v229h158v109q0 154 67.5 226.5t250.5 72.5l168 -12v-222q-70 4 -99 4q-37 0 -58.5 -7t-30.5 -27.5t-11 -38t-2 -54.5v-51h194v-229h-194v-850h-285v850h-158zM701 850v229h158v109q0 154 67.5 226.5t250.5 72.5l168 -12v-222q-70 4 -99 4q-37 0 -58.5 -7 t-30.5 -27.5t-11 -38t-2 -54.5v-51h194v-229h-194v-850h-285v850h-158zM1483 1343.5q0 83.5 32.5 118.5t129 35t130 -35t33.5 -118.5t-33.5 -117.5t-130 -34t-129 34t-32.5 117.5zM1503 0v1079h285v-1079h-285z" />
<glyph unicode="&#xfb04;" horiz-adv-x="1931" d="M20 850v229h158v109q0 154 67.5 226.5t250.5 72.5l168 -12v-222q-70 4 -99 4q-37 0 -58.5 -7t-30.5 -27.5t-11 -38t-2 -54.5v-51h194v-229h-194v-850h-285v850h-158zM701 850v229h158v109q0 154 67.5 226.5t250.5 72.5l168 -12v-222q-70 4 -99 4q-37 0 -58.5 -7 t-30.5 -27.5t-11 -38t-2 -54.5v-51h194v-229h-194v-850h-285v850h-158zM1503 0v1468h285v-1468h-285z" />
</font>
</defs>
</svg>
